<?xml version="1.0" standalone="no"?>
<!DOCTYPE svg PUBLIC "-//W3C//DTD SVG 1.1//EN" "http://www.w3.org/Graphics/SVG/1.1/DTD/svg11.dtd" >
<svg xmlns="http://www.w3.org/2000/svg">
<metadata>Generated by IcoMoon</metadata>
<defs>
<font id="Slimicons" horiz-adv-x="1024">
<font-face units-per-em="1024" ascent="960" descent="-64" />
<missing-glyph horiz-adv-x="1024" />
<glyph unicode="&#x20;" horiz-adv-x="512" d="" />
<glyph unicode="&#xe902;" glyph-name="alignment_align-all" d="M64 490.667h384c11.776 0 21.333 9.557 21.333 21.333v384c0 11.776-9.557 21.333-21.333 21.333h-384c-11.776 0-21.333-9.557-21.333-21.333v-384c0-11.776 9.557-21.333 21.333-21.333zM85.333 874.667h341.333v-341.333h-341.333v341.333zM576 490.667h384c11.776 0 21.333 9.557 21.333 21.333v384c0 11.776-9.557 21.333-21.333 21.333h-384c-11.776 0-21.333-9.557-21.333-21.333v-384c0-11.776 9.557-21.333 21.333-21.333zM597.333 874.667h341.333v-341.333h-341.333v341.333zM42.667 0c0-11.776 9.557-21.333 21.333-21.333h384c11.776 0 21.333 9.557 21.333 21.333v384c0 11.776-9.557 21.333-21.333 21.333h-384c-11.776 0-21.333-9.557-21.333-21.333v-384zM85.333 362.667h341.333v-341.333h-341.333v341.333zM554.667 0c0-11.776 9.557-21.333 21.333-21.333h384c11.776 0 21.333 9.557 21.333 21.333v384c0 11.776-9.557 21.333-21.333 21.333h-384c-11.776 0-21.333-9.557-21.333-21.333v-384zM597.333 362.667h341.333v-341.333h-341.333v341.333z" />
<glyph unicode="&#xe903;" glyph-name="alignment_align-all-1" d="M42.667 896v-213.333c0-11.776 9.557-21.333 21.333-21.333h213.333c11.776 0 21.333 9.557 21.333 21.333v213.333c0 11.776-9.557 21.333-21.333 21.333h-213.333c-11.776 0-21.333-9.557-21.333-21.333zM85.333 874.667h170.667v-170.667h-170.667v170.667zM981.333 896c0 11.776-9.557 21.333-21.333 21.333h-213.333c-11.776 0-21.333-9.557-21.333-21.333v-213.333c0-11.776 9.557-21.333 21.333-21.333h213.333c11.776 0 21.333 9.557 21.333 21.333v213.333zM938.667 704h-170.667v170.667h170.667v-170.667zM640 896c0 11.776-9.557 21.333-21.333 21.333h-213.333c-11.776 0-21.333-9.557-21.333-21.333v-213.333c0-11.776 9.557-21.333 21.333-21.333h213.333c11.776 0 21.333 9.557 21.333 21.333v213.333zM597.333 704h-170.667v170.667h170.667v-170.667zM42.667 341.333c0-11.776 9.557-21.333 21.333-21.333h213.333c11.776 0 21.333 9.557 21.333 21.333v213.333c0 11.776-9.557 21.333-21.333 21.333h-213.333c-11.776 0-21.333-9.557-21.333-21.333v-213.333zM85.333 533.333h170.667v-170.667h-170.667v170.667zM981.333 554.667c0 11.776-9.557 21.333-21.333 21.333h-213.333c-11.776 0-21.333-9.557-21.333-21.333v-213.333c0-11.776 9.557-21.333 21.333-21.333h213.333c11.776 0 21.333 9.557 21.333 21.333v213.333zM938.667 362.667h-170.667v170.667h170.667v-170.667zM640 554.667c0 11.776-9.557 21.333-21.333 21.333h-213.333c-11.776 0-21.333-9.557-21.333-21.333v-213.333c0-11.776 9.557-21.333 21.333-21.333h213.333c11.776 0 21.333 9.557 21.333 21.333v213.333zM597.333 362.667h-170.667v170.667h170.667v-170.667zM42.667 0c0-11.776 9.557-21.333 21.333-21.333h213.333c11.776 0 21.333 9.557 21.333 21.333v213.333c0 11.776-9.557 21.333-21.333 21.333h-213.333c-11.776 0-21.333-9.557-21.333-21.333v-213.333zM85.333 192h170.667v-170.667h-170.667v170.667zM960 234.667h-213.333c-11.776 0-21.333-9.557-21.333-21.333v-213.333c0-11.776 9.557-21.333 21.333-21.333h213.333c11.776 0 21.333 9.557 21.333 21.333v213.333c0 11.776-9.557 21.333-21.333 21.333zM938.667 21.333h-170.667v170.667h170.667v-170.667zM618.667 234.667h-213.333c-11.776 0-21.333-9.557-21.333-21.333v-213.333c0-11.776 9.557-21.333 21.333-21.333h213.333c11.776 0 21.333 9.557 21.333 21.333v213.333c0 11.776-9.557 21.333-21.333 21.333zM597.333 21.333h-170.667v170.667h170.667v-170.667z" />
<glyph unicode="&#xe908;" glyph-name="alignment_align-justify-all" d="M1002.667 789.333h-981.333c-11.776 0-21.333-9.557-21.333-21.333s9.557-21.333 21.333-21.333h981.333c11.776 0 21.333 9.557 21.333 21.333s-9.557 21.333-21.333 21.333zM1002.667 106.667h-981.333c-11.776 0-21.333-9.557-21.333-21.333s9.557-21.333 21.333-21.333h981.333c11.776 0 21.333 9.557 21.333 21.333s-9.557 21.333-21.333 21.333zM1002.667 277.333h-981.333c-11.776 0-21.333-9.557-21.333-21.333s9.557-21.333 21.333-21.333h981.333c11.776 0 21.333 9.557 21.333 21.333s-9.557 21.333-21.333 21.333zM1002.667 448h-981.333c-11.776 0-21.333-9.557-21.333-21.333s9.557-21.333 21.333-21.333h981.333c11.776 0 21.333 9.557 21.333 21.333s-9.557 21.333-21.333 21.333zM1002.667 618.667h-981.333c-11.776 0-21.333-9.557-21.333-21.333s9.557-21.333 21.333-21.333h981.333c11.776 0 21.333 9.557 21.333 21.333s-9.557 21.333-21.333 21.333z" />
<glyph unicode="&#xe909;" glyph-name="alignment_align-justify-center" d="M1002.667 789.333h-981.333c-11.776 0-21.333-9.557-21.333-21.333s9.557-21.333 21.333-21.333h981.333c11.776 0 21.333 9.557 21.333 21.333s-9.557 21.333-21.333 21.333zM746.667 64c11.776 0 21.333 9.557 21.333 21.333s-9.557 21.333-21.333 21.333h-469.333c-11.776 0-21.333-9.557-21.333-21.333s9.557-21.333 21.333-21.333h469.333zM1002.667 277.333h-981.333c-11.776 0-21.333-9.557-21.333-21.333s9.557-21.333 21.333-21.333h981.333c11.776 0 21.333 9.557 21.333 21.333s-9.557 21.333-21.333 21.333zM1002.667 448h-981.333c-11.776 0-21.333-9.557-21.333-21.333s9.557-21.333 21.333-21.333h981.333c11.776 0 21.333 9.557 21.333 21.333s-9.557 21.333-21.333 21.333zM1002.667 618.667h-981.333c-11.776 0-21.333-9.557-21.333-21.333s9.557-21.333 21.333-21.333h981.333c11.776 0 21.333 9.557 21.333 21.333s-9.557 21.333-21.333 21.333z" />
<glyph unicode="&#xe90a;" glyph-name="alignment_align-justify-left" d="M1002.667 789.333h-981.333c-11.776 0-21.333-9.557-21.333-21.333s9.557-21.333 21.333-21.333h981.333c11.776 0 21.333 9.557 21.333 21.333s-9.557 21.333-21.333 21.333zM1002.667 106.667h-469.333c-11.776 0-21.333-9.557-21.333-21.333s9.557-21.333 21.333-21.333h469.333c11.776 0 21.333 9.557 21.333 21.333s-9.557 21.333-21.333 21.333zM1002.667 277.333h-981.333c-11.776 0-21.333-9.557-21.333-21.333s9.557-21.333 21.333-21.333h981.333c11.776 0 21.333 9.557 21.333 21.333s-9.557 21.333-21.333 21.333zM1002.667 448h-981.333c-11.776 0-21.333-9.557-21.333-21.333s9.557-21.333 21.333-21.333h981.333c11.776 0 21.333 9.557 21.333 21.333s-9.557 21.333-21.333 21.333zM1002.667 618.667h-981.333c-11.776 0-21.333-9.557-21.333-21.333s9.557-21.333 21.333-21.333h981.333c11.776 0 21.333 9.557 21.333 21.333s-9.557 21.333-21.333 21.333z" />
<glyph unicode="&#xe90b;" glyph-name="alignment_align-justify-right" d="M1002.667 789.333h-981.333c-11.776 0-21.333-9.557-21.333-21.333s9.557-21.333 21.333-21.333h981.333c11.776 0 21.333 9.557 21.333 21.333s-9.557 21.333-21.333 21.333zM512 85.333c0 11.776-9.557 21.333-21.333 21.333h-469.333c-11.776 0-21.333-9.557-21.333-21.333s9.557-21.333 21.333-21.333h469.333c11.776 0 21.333 9.557 21.333 21.333zM1002.667 277.333h-981.333c-11.776 0-21.333-9.557-21.333-21.333s9.557-21.333 21.333-21.333h981.333c11.776 0 21.333 9.557 21.333 21.333s-9.557 21.333-21.333 21.333zM1002.667 448h-981.333c-11.776 0-21.333-9.557-21.333-21.333s9.557-21.333 21.333-21.333h981.333c11.776 0 21.333 9.557 21.333 21.333s-9.557 21.333-21.333 21.333zM1002.667 618.667h-981.333c-11.776 0-21.333-9.557-21.333-21.333s9.557-21.333 21.333-21.333h981.333c11.776 0 21.333 9.557 21.333 21.333s-9.557 21.333-21.333 21.333z" />
<glyph unicode="&#xe912;" glyph-name="alignment_bracket-symbols" d="M170.667 768c0 58.837 47.829 106.667 106.667 106.667 11.776 0 21.333 9.557 21.333 21.333s-9.557 21.333-21.333 21.333c-82.347 0-149.333-66.987-149.333-149.333v-320h-64c-11.776 0-21.333-9.557-21.333-21.333s9.557-21.333 21.333-21.333h64v-320c0-82.347 66.987-149.333 149.333-149.333 11.776 0 21.333 9.557 21.333 21.333s-9.557 21.333-21.333 21.333c-58.837 0-106.667 47.829-106.667 106.667v682.667zM960 448h-64v320c0 82.347-66.987 149.333-149.333 149.333-11.776 0-21.333-9.557-21.333-21.333s9.557-21.333 21.333-21.333c58.837 0 106.667-47.829 106.667-106.667v-682.667c0-58.837-47.829-106.667-106.667-106.667-11.776 0-21.333-9.557-21.333-21.333s9.557-21.333 21.333-21.333c82.347 0 149.333 66.987 149.333 149.333v320h64c11.776 0 21.333 9.557 21.333 21.333s-9.557 21.333-21.333 21.333z" />
<glyph unicode="&#xe913;" glyph-name="alignment_column-row-horizontal" d="M960 917.333h-896c-11.776 0-21.333-9.557-21.333-21.333v-896c0-11.776 9.557-21.333 21.333-21.333h896c11.776 0 21.333 9.557 21.333 21.333v896c0 11.776-9.557 21.333-21.333 21.333zM85.333 576h853.333v-256h-853.333v256zM938.667 874.667v-256h-853.333v256h853.333zM85.333 21.333v256h853.333v-256h-853.333z" />
<glyph unicode="&#xe914;" glyph-name="alignment_column-row-vertical" d="M960 917.333h-896c-11.776 0-21.333-9.557-21.333-21.333v-896c0-11.776 9.557-21.333 21.333-21.333h896c11.776 0 21.333 9.557 21.333 21.333v896c0 11.776-9.557 21.333-21.333 21.333zM640 874.667v-853.333h-256v853.333h256zM85.333 874.667h256v-853.333h-256v853.333zM938.667 21.333h-256v853.333h256v-853.333z" />
<glyph unicode="&#xe915;" glyph-name="alignment_greater-less-than" d="M377.301 826.197c-8.533 8.064-22.101 7.68-30.165-0.896l-341.333-362.667c-7.723-8.192-7.723-21.035 0-29.269l341.333-362.667c4.181-4.437 9.856-6.699 15.531-6.699 5.248 0 10.496 1.92 14.635 5.803 8.576 8.064 9.003 21.589 0.896 30.165l-327.552 348.032 327.595 348.032c8.064 8.576 7.637 22.101-0.939 30.165zM676.864 825.301c-8.064 8.576-21.589 9.003-30.165 0.896s-9.003-21.589-0.896-30.165l327.552-348.032-327.595-348.032c-8.064-8.576-7.68-22.101 0.896-30.165 4.181-3.883 9.429-5.803 14.677-5.803 5.675 0 11.349 2.261 15.531 6.699l341.333 362.667c7.723 8.192 7.723 21.035 0 29.269l-341.333 362.667z" />
<glyph unicode="&#xe916;" glyph-name="alignment_grid-align" d="M960 917.333h-896c-11.776 0-21.333-9.557-21.333-21.333v-896c0-11.776 9.557-21.333 21.333-21.333h896c11.776 0 21.333 9.557 21.333 21.333v896c0 11.776-9.557 21.333-21.333 21.333zM384 320v256h256v-256h-256zM640 277.333v-256h-256v256h256zM85.333 576h256v-256h-256v256zM384 618.667v256h256v-256h-256zM682.667 576h256v-256h-256v256zM938.667 618.667h-256v256h256v-256zM341.333 874.667v-256h-256v256h256zM85.333 277.333h256v-256h-256v256zM682.667 21.333v256h256v-256h-256z" />
<glyph unicode="&#xe924;" glyph-name="alignment_italic-text" d="M661.333 874.667h-170.667c-11.776 0-21.333-9.557-21.333-21.333s9.557-21.333 21.333-21.333h56.661l-243.2-810.667h-69.461c-11.776 0-21.333-9.557-21.333-21.333s9.557-21.333 21.333-21.333h170.667c11.776 0 21.333 9.557 21.333 21.333s-9.557 21.333-21.333 21.333h-56.661l243.2 810.667h69.461c11.776 0 21.333 9.557 21.333 21.333s-9.557 21.333-21.333 21.333z" />
<glyph unicode="&#xe925;" glyph-name="alignment_last-place-symbol" d="M298.667 85.333c0 9.941-6.827 18.347-16.085 20.651-91.307 73.173-143.488 181.931-143.488 299.349 0 211.755 172.288 384 384 384s384-172.245 384-384c0-117.291-52.096-225.92-143.147-299.051-9.813-1.92-17.28-10.581-17.28-20.949 0-11.776 9.557-21.333 21.333-21.333h170.667c11.776 0 21.333 9.557 21.333 21.333s-9.557 21.333-21.333 21.333h-110.763c78.037 79.189 121.813 185.301 121.813 298.667 0 235.264-191.403 426.667-426.667 426.667s-426.667-191.403-426.667-426.667c0-113.365 43.819-219.477 121.856-298.667h-132.907c-11.776 0-21.333-9.557-21.333-21.333s9.557-21.333 21.333-21.333h192c11.776 0 21.333 9.557 21.333 21.333z" />
<glyph unicode="&#xe927;" glyph-name="alignment_letter" d="M126.251-4.864l139.819 324.864h490.923l140.757-328.405c3.456-8.107 11.307-12.928 19.584-12.928 2.816 0 5.675 0.555 8.405 1.707 10.837 4.651 15.872 17.195 11.221 28.032l-384 896c-3.371 7.851-11.093 12.928-19.627 12.928h-42.667c-8.533 0-16.213-5.077-19.584-12.928l-384-892.459c-4.651-10.795 0.341-23.381 11.179-27.989 10.667-4.693 23.339 0.341 27.989 11.179zM504.704 874.667h14.549l219.435-512h-454.272l220.288 512z" />
<glyph unicode="&#xe928;" glyph-name="alignment_letter-align-1" d="M13.099-59.477c10.88-4.437 23.381 0.597 27.904 11.435l100.736 240.043h398.421l101.504-242.859c3.413-8.235 11.349-13.141 19.669-13.141 2.731 0 5.547 0.555 8.192 1.664 10.88 4.523 16 17.024 11.477 27.861l-106.325 254.421c-0.384 1.109-0.768 2.133-1.323 3.115l-60.885 145.707 70.741 164.565h271.829l85.333-200.363c3.456-8.107 11.349-12.971 19.627-12.971 2.773 0 5.632 0.555 8.363 1.707 10.837 4.608 15.872 17.152 11.264 27.989l-89.045 208.981c-0.683 3.456-1.877 6.699-3.968 9.301l-143.787 336.384c-3.371 7.893-11.093 12.971-19.627 12.971h-7.253c-8.533 0-16.256-5.077-19.584-12.928l-206.763-480.896-111.787 267.349c-3.285 7.979-11.051 13.141-19.627 13.141h-33.707c-8.576 0-16.299-5.163-19.627-13.099l-303.189-722.432c-4.565-10.88 0.555-23.381 11.435-27.947zM719.531 850.347l117.248-274.347h-235.179l117.931 274.347zM338.688 661.333h5.291l178.347-426.667h-362.667l179.029 426.667z" />
<glyph unicode="&#xe929;" glyph-name="alignment_no-border" d="M512 874.667h17.451c11.776 0 21.333 9.557 21.333 21.333s-9.515 21.333-21.333 21.333h-77.568c-11.776 0-21.333-9.557-21.333-21.333s9.557-21.333 21.333-21.333h17.451v-21.333c0-11.776 9.557-21.333 21.333-21.333s21.333 9.557 21.333 21.333v21.333zM512 310.272c0 11.776-9.557 21.333-21.333 21.333s-21.333-9.557-21.333-21.333v-77.568c0-11.776 9.557-21.333 21.333-21.333s21.333 9.557 21.333 21.333v77.568zM490.667 641.92c-11.776 0-21.333-9.557-21.333-21.333v-77.525c0-11.776 9.557-21.333 21.333-21.333s21.333 9.557 21.333 21.333v77.525c0 11.776-9.557 21.333-21.333 21.333zM490.667 176.469c-11.776 0-21.333-9.557-21.333-21.333v-77.525c0-11.776 9.557-21.333 21.333-21.333s21.333 9.557 21.333 21.333v77.525c0 11.776-9.557 21.333-21.333 21.333zM512 775.765c0 11.776-9.557 21.333-21.333 21.333s-21.333-9.557-21.333-21.333v-77.568c0-11.776 9.557-21.333 21.333-21.333s21.333 9.557 21.333 21.333v77.568zM141.568 405.333h77.568c11.776 0 21.333 9.557 21.333 21.333s-9.515 21.333-21.291 21.333h-77.611c-11.776 0-21.333-9.557-21.333-21.333s9.557-21.333 21.333-21.333zM607.061 405.333h77.568c11.776 0 21.333 9.557 21.333 21.333s-9.557 21.333-21.333 21.333h-77.568c-11.776 0-21.333-9.557-21.333-21.333s9.515-21.333 21.333-21.333zM451.883 405.333h17.451v-17.451c0-11.776 9.557-21.333 21.333-21.333s21.333 9.557 21.333 21.333v17.451h17.451c11.776 0 21.333 9.557 21.333 21.333s-9.557 21.333-21.333 21.333h-17.451v17.451c0 11.776-9.557 21.333-21.333 21.333s-21.333-9.557-21.333-21.333v-17.451h-17.451c-11.776 0-21.333-9.557-21.333-21.333s9.515-21.333 21.333-21.333zM374.272 448h-77.525c-11.776 0-21.333-9.557-21.333-21.333s9.557-21.333 21.333-21.333h77.525c11.776 0 21.333 9.557 21.333 21.333s-9.515 21.333-21.333 21.333zM839.765 448h-77.525c-11.776 0-21.333-9.557-21.333-21.333s9.557-21.333 21.333-21.333h77.525c11.776 0 21.333 9.557 21.333 21.333s-9.557 21.333-21.333 21.333zM85.333-42.667c0 11.776-9.557 21.333-21.333 21.333h-21.333v21.333c0 11.776-9.557 21.333-21.333 21.333s-21.333-9.557-21.333-21.333v-42.667c0-11.776 9.557-21.333 21.333-21.333h42.667c11.776 0 21.333 9.557 21.333 21.333zM451.883-64h77.568c11.776 0 21.333 9.557 21.333 21.333s-9.557 21.333-21.333 21.333h-17.451v21.333c0 11.776-9.557 21.333-21.333 21.333s-21.333-9.557-21.333-21.333v-21.333h-17.451c-11.776 0-21.333-9.557-21.333-21.333s9.515-21.333 21.333-21.333zM839.765-21.333h-77.525c-11.776 0-21.333-9.557-21.333-21.333s9.557-21.333 21.333-21.333h77.525c11.776 0 21.333 9.557 21.333 21.333s-9.557 21.333-21.333 21.333zM141.568-64h77.568c11.776 0 21.333 9.557 21.333 21.333s-9.515 21.333-21.291 21.333h-77.611c-11.776 0-21.333-9.557-21.333-21.333s9.557-21.333 21.333-21.333zM374.272-21.333h-77.525c-11.776 0-21.333-9.557-21.333-21.333s9.557-21.333 21.333-21.333h77.525c11.776 0 21.333 9.557 21.333 21.333s-9.515 21.333-21.333 21.333zM607.061-64h77.568c11.776 0 21.333 9.557 21.333 21.333s-9.557 21.333-21.333 21.333h-77.568c-11.776 0-21.333-9.557-21.333-21.333s9.515-21.333 21.333-21.333zM960 21.333c-11.776 0-21.333-9.557-21.333-21.333v-21.333h-21.333c-11.776 0-21.333-9.557-21.333-21.333s9.557-21.333 21.333-21.333h42.667c11.776 0 21.333 9.557 21.333 21.333v42.667c0 11.776-9.557 21.333-21.333 21.333zM960 331.605c-11.776 0-21.333-9.557-21.333-21.333v-77.525c0-11.776 9.557-21.333 21.333-21.333s21.333 9.557 21.333 21.333v77.525c0 11.819-9.557 21.333-21.333 21.333zM960 486.784c-11.776 0-21.333-9.557-21.333-21.333v-17.451h-21.333c-11.776 0-21.333-9.557-21.333-21.333s9.557-21.333 21.333-21.333h21.333v-17.451c0-11.776 9.557-21.333 21.333-21.333s21.333 9.557 21.333 21.333v77.568c0 11.819-9.557 21.333-21.333 21.333zM960 176.512c-11.776 0-21.333-9.557-21.333-21.333v-77.568c0-11.776 9.557-21.333 21.333-21.333s21.333 9.557 21.333 21.333v77.568c0 11.776-9.557 21.333-21.333 21.333zM960 797.099c-11.776 0-21.333-9.557-21.333-21.333v-77.525c0-11.776 9.557-21.333 21.333-21.333s21.333 9.557 21.333 21.333v77.525c0 11.776-9.557 21.333-21.333 21.333zM960 641.963c-11.776 0-21.333-9.557-21.333-21.333v-77.568c0-11.776 9.557-21.333 21.333-21.333s21.333 9.557 21.333 21.333v77.568c0 11.776-9.557 21.333-21.333 21.333zM960 917.333h-42.667c-11.776 0-21.333-9.557-21.333-21.333s9.557-21.333 21.333-21.333h21.333v-21.333c0-11.776 9.557-21.333 21.333-21.333s21.333 9.557 21.333 21.333v42.667c0 11.776-9.557 21.333-21.333 21.333zM607.061 874.667h77.525c11.776 0 21.333 9.557 21.333 21.333s-9.557 21.333-21.333 21.333h-77.525c-11.776 0-21.333-9.557-21.333-21.333s9.515-21.333 21.333-21.333zM374.272 917.333h-77.568c-11.776 0-21.333-9.557-21.333-21.333s9.557-21.333 21.333-21.333h77.568c11.776 0 21.333 9.557 21.333 21.333s-9.515 21.333-21.333 21.333zM141.568 874.667h77.525c11.776 0 21.333 9.557 21.333 21.333s-9.515 21.333-21.291 21.333h-77.568c-11.776 0-21.333-9.557-21.333-21.333s9.557-21.333 21.333-21.333zM839.765 917.333h-77.568c-11.776 0-21.333-9.557-21.333-21.333s9.557-21.333 21.333-21.333h77.568c11.776 0 21.333 9.557 21.333 21.333s-9.557 21.333-21.333 21.333zM21.333 832c11.776 0 21.333 9.557 21.333 21.333v21.333h21.333c11.776 0 21.333 9.557 21.333 21.333s-9.557 21.333-21.333 21.333h-42.667c-11.776 0-21.333-9.557-21.333-21.333v-42.667c0-11.776 9.557-21.333 21.333-21.333zM21.333 211.371c11.776 0 21.333 9.557 21.333 21.333v77.568c0 11.776-9.557 21.333-21.333 21.333s-21.333-9.515-21.333-21.333v-77.568c0-11.776 9.557-21.333 21.333-21.333zM21.333 56.235c11.776 0 21.333 9.557 21.333 21.333v77.525c0 11.776-9.557 21.333-21.333 21.333s-21.333-9.515-21.333-21.291v-77.525c0-11.819 9.557-21.376 21.333-21.376zM21.333 366.549c11.776 0 21.333 9.557 21.333 21.333v17.451h21.333c11.776 0 21.333 9.557 21.333 21.333s-9.557 21.333-21.333 21.333h-21.333v17.451c0 11.776-9.557 21.333-21.333 21.333s-21.333-9.515-21.333-21.333v-77.568c0-11.819 9.557-21.333 21.333-21.333zM21.333 521.728c11.776 0 21.333 9.557 21.333 21.333v77.525c0 11.776-9.557 21.333-21.333 21.333s-21.333-9.557-21.333-21.333v-77.525c0-11.819 9.557-21.333 21.333-21.333zM21.333 676.821c11.776 0 21.333 9.557 21.333 21.333v77.611c0 11.776-9.557 21.333-21.333 21.333s-21.333-9.557-21.333-21.333v-77.568c0-11.819 9.557-21.376 21.333-21.376z" />
<glyph unicode="&#xe92b;" glyph-name="alignment_pilcrow" d="M320 469.333h21.333v-469.333c0-11.776 9.557-21.333 21.333-21.333s21.333 9.557 21.333 21.333v853.333h256v-853.333c0-11.776 9.557-21.333 21.333-21.333s21.333 9.557 21.333 21.333v853.333h149.333c11.776 0 21.333 9.557 21.333 21.333s-9.557 21.333-21.333 21.333h-512c-117.632 0-213.333-95.701-213.333-213.333s95.701-213.333 213.333-213.333zM320 853.333h21.333v-341.333h-21.333c-94.123 0-170.667 76.544-170.667 170.667s76.544 170.667 170.667 170.667z" />
<glyph unicode="&#xe92c;" glyph-name="alignment_quote-marks" d="M229.333 704c11.776 0 21.333 9.557 21.333 21.333s-9.557 21.333-21.333 21.333c-102.955 0-186.667-83.755-186.667-186.667v-388.437c0-35.797 29.099-64.896 64.896-64.896h254.208c35.797 0 64.896 29.099 64.896 64.896v254.251c0 35.755-29.099 64.853-64.896 64.853h-276.437v69.333c0 79.403 64.597 144 144 144zM384 425.771v-254.251c0-12.245-9.984-22.187-22.229-22.187h-254.208c-12.245 0-22.229 9.941-22.229 22.229v276.437h276.437c12.245 0 22.229-9.941 22.229-22.229zM916.437 490.667h-276.437v69.333c0 79.403 64.597 144 144 144 11.776 0 21.333 9.557 21.333 21.333s-9.557 21.333-21.333 21.333c-102.955 0-186.667-83.755-186.667-186.667v-388.437c0-35.797 29.099-64.896 64.896-64.896h254.208c35.797 0 64.896 29.099 64.896 64.896v254.251c0 35.755-29.099 64.853-64.896 64.853zM938.667 171.563c0-12.288-9.984-22.229-22.229-22.229h-254.208c-12.245 0-22.229 9.941-22.229 22.229v276.437h276.437c12.245 0 22.229-9.941 22.229-22.229v-254.208z" />
<glyph unicode="&#xe92e;" glyph-name="alignment_text-align" d="M874.667 789.333c11.776 0 21.333 9.557 21.333 21.333v85.333c0 11.776-9.557 21.333-21.333 21.333h-768c-11.776 0-21.333-9.557-21.333-21.333v-85.333c0-11.776 9.557-21.333 21.333-21.333s21.333 9.557 21.333 21.333v64h341.333v-853.333h-128c-11.776 0-21.333-9.557-21.333-21.333s9.557-21.333 21.333-21.333h298.667c11.776 0 21.333 9.557 21.333 21.333s-9.557 21.333-21.333 21.333h-128v853.333h341.333v-64c0-11.776 9.557-21.333 21.333-21.333z" />
<glyph unicode="&#xe930;" glyph-name="alignment_text-format" d="M1002.667 490.667h-426.667c-11.776 0-21.333-9.557-21.333-21.333v-64c0-11.776 9.557-21.333 21.333-21.333s21.333 9.557 21.333 21.333v42.667h170.667v-426.667h-68.309c-11.776 0-21.333-9.557-21.333-21.333s9.557-21.333 21.333-21.333h170.667c11.776 0 21.333 9.557 21.333 21.333s-9.557 21.333-21.333 21.333h-59.691v426.667h170.667v-42.667c0-11.776 9.557-21.333 21.333-21.333s21.333 9.557 21.333 21.333v64c0 11.776-9.557 21.333-21.333 21.333zM42.667 874.667h341.333v-853.333h-128c-11.776 0-21.333-9.557-21.333-21.333s9.557-21.333 21.333-21.333h298.667c11.776 0 21.333 9.557 21.333 21.333s-9.557 21.333-21.333 21.333h-128v853.333h341.333v-64c0-11.776 9.557-21.333 21.333-21.333s21.333 9.557 21.333 21.333v85.333c0 11.776-9.557 21.333-21.333 21.333h-768c-11.776 0-21.333-9.557-21.333-21.333v-85.333c0-11.776 9.557-21.333 21.333-21.333s21.333 9.557 21.333 21.333v64z" />
<glyph unicode="&#xe931;" glyph-name="alignment_text-list" d="M42.667 810.667v-170.667c0-11.776 9.557-21.333 21.333-21.333h170.667c11.776 0 21.333 9.557 21.333 21.333v170.667c0 11.776-9.557 21.333-21.333 21.333h-170.667c-11.776 0-21.333-9.557-21.333-21.333zM85.333 789.333h128v-128h-128v128zM64 320h170.667c11.776 0 21.333 9.557 21.333 21.333v170.667c0 11.776-9.557 21.333-21.333 21.333h-170.667c-11.776 0-21.333-9.557-21.333-21.333v-170.667c0-11.776 9.557-21.333 21.333-21.333zM85.333 490.667h128v-128h-128v128zM42.667 42.667c0-11.776 9.557-21.333 21.333-21.333h170.667c11.776 0 21.333 9.557 21.333 21.333v170.667c0 11.776-9.557 21.333-21.333 21.333h-170.667c-11.776 0-21.333-9.557-21.333-21.333v-170.667zM85.333 192h128v-128h-128v128zM960 789.333h-640c-11.776 0-21.333-9.557-21.333-21.333s9.557-21.333 21.333-21.333h640c11.776 0 21.333 9.557 21.333 21.333s-9.557 21.333-21.333 21.333zM960 704h-640c-11.776 0-21.333-9.557-21.333-21.333s9.557-21.333 21.333-21.333h640c11.776 0 21.333 9.557 21.333 21.333s-9.557 21.333-21.333 21.333zM960 490.667h-640c-11.776 0-21.333-9.557-21.333-21.333s9.557-21.333 21.333-21.333h640c11.776 0 21.333 9.557 21.333 21.333s-9.557 21.333-21.333 21.333zM960 405.333h-640c-11.776 0-21.333-9.557-21.333-21.333s9.557-21.333 21.333-21.333h640c11.776 0 21.333 9.557 21.333 21.333s-9.557 21.333-21.333 21.333zM960 192h-640c-11.776 0-21.333-9.557-21.333-21.333s9.557-21.333 21.333-21.333h640c11.776 0 21.333 9.557 21.333 21.333s-9.557 21.333-21.333 21.333zM960 106.667h-640c-11.776 0-21.333-9.557-21.333-21.333s9.557-21.333 21.333-21.333h640c11.776 0 21.333 9.557 21.333 21.333s-9.557 21.333-21.333 21.333z" />
<glyph unicode="&#xe932;" glyph-name="alignment_text-magnet" d="M512 917.333c-258.773 0-469.333-210.56-469.333-469.333v-448c0-11.776 9.557-21.333 21.333-21.333h213.333c11.776 0 21.333 9.557 21.333 21.333v448c0 117.632 95.701 213.333 213.333 213.333 57.045 0 110.635-22.187 150.869-62.464 40.277-40.235 62.464-93.824 62.464-150.869v-448c0-11.776 9.557-21.333 21.333-21.333h213.333c11.776 0 21.333 9.557 21.333 21.333v448c0 125.141-48.896 242.859-137.685 331.648s-206.507 137.685-331.648 137.685zM85.333 21.333v128h170.667v-128h-170.667zM768 21.333v128h170.667v-128h-170.667zM938.667 192h-170.667v256c0 68.437-26.624 132.736-74.965 181.035-48.299 48.341-112.597 74.965-181.035 74.965-141.184 0-256-114.816-256-256v-256h-170.667v256c0 235.264 191.403 426.667 426.667 426.667 113.707 0 220.8-44.459 301.483-125.184s125.184-187.776 125.184-301.483v-256z" />
<glyph unicode="&#xe933;" glyph-name="alignment_text-media-list" d="M42.667 725.333v-213.333c0-11.776 9.557-21.333 21.333-21.333h213.333c11.776 0 21.333 9.557 21.333 21.333v213.333c0 11.776-9.557 21.333-21.333 21.333h-213.333c-11.776 0-21.333-9.557-21.333-21.333zM85.333 704h170.667v-170.667h-170.667v170.667zM960 704h-554.667c-11.776 0-21.333-9.557-21.333-21.333s9.557-21.333 21.333-21.333h554.667c11.776 0 21.333 9.557 21.333 21.333s-9.557 21.333-21.333 21.333zM960 576h-554.667c-11.776 0-21.333-9.557-21.333-21.333s9.557-21.333 21.333-21.333h554.667c11.776 0 21.333 9.557 21.333 21.333s-9.557 21.333-21.333 21.333zM298.667 170.667v213.333c0 11.776-9.557 21.333-21.333 21.333h-213.333c-11.776 0-21.333-9.557-21.333-21.333v-213.333c0-11.776 9.557-21.333 21.333-21.333h213.333c11.776 0 21.333 9.557 21.333 21.333zM256 192h-170.667v170.667h170.667v-170.667zM960 362.667h-554.667c-11.776 0-21.333-9.557-21.333-21.333s9.557-21.333 21.333-21.333h554.667c11.776 0 21.333 9.557 21.333 21.333s-9.557 21.333-21.333 21.333zM960 234.667h-554.667c-11.776 0-21.333-9.557-21.333-21.333s9.557-21.333 21.333-21.333h554.667c11.776 0 21.333 9.557 21.333 21.333s-9.557 21.333-21.333 21.333z" />
<glyph unicode="&#xe942;" glyph-name="alignment_window-align" d="M960 917.333h-896c-11.776 0-21.333-9.557-21.333-21.333v-896c0-11.776 9.557-21.333 21.333-21.333h896c11.776 0 21.333 9.557 21.333 21.333v896c0 11.776-9.557 21.333-21.333 21.333zM938.667 21.333h-853.333v853.333h853.333v-853.333z" />
<glyph unicode="&#xe943;" glyph-name="alignment_window-align-center-top" d="M917.333-21.333c11.776 0 21.333 9.557 21.333 21.333v896c0 11.776-9.557 21.333-21.333 21.333h-853.333c-11.776 0-21.333-9.557-21.333-21.333v-896c0-11.776 9.557-21.333 21.333-21.333h853.333zM85.333 576h384v-554.667h-384v554.667zM512 21.333v554.667h384v-554.667h-384zM896 874.667v-256h-810.667v256h810.667z" />
<glyph unicode="&#xe948;" glyph-name="alignment_window-align-half-left" d="M42.667 0c0-11.776 9.557-21.333 21.333-21.333h896c11.776 0 21.333 9.557 21.333 21.333v896c0 11.776-9.557 21.333-21.333 21.333h-896c-11.776 0-21.333-9.557-21.333-21.333v-896zM384 21.333v426.667h554.667v-426.667h-554.667zM938.667 490.667h-554.667v384h554.667v-384zM85.333 874.667h256v-853.333h-256v853.333z" />
<glyph unicode="&#xe949;" glyph-name="alignment_window-align-left" d="M960 917.333h-896c-11.776 0-21.333-9.557-21.333-21.333v-896c0-11.776 9.557-21.333 21.333-21.333h896c11.776 0 21.333 9.557 21.333 21.333v896c0 11.776-9.557 21.333-21.333 21.333zM85.333 874.667h256v-853.333h-256v853.333zM938.667 21.333h-554.667v853.333h554.667v-853.333z" />
<glyph unicode="&#xe94a;" glyph-name="alignment_window-align-left-top" d="M42.667 0c0-11.776 9.557-21.333 21.333-21.333h896c11.776 0 21.333 9.557 21.333 21.333v896c0 11.776-9.557 21.333-21.333 21.333h-896c-11.776 0-21.333-9.557-21.333-21.333v-896zM85.333 576h554.667v-554.667h-554.667v554.667zM682.667 21.333v554.667h256v-554.667h-256zM938.667 874.667v-256h-853.333v256h853.333z" />
<glyph unicode="&#xe94b;" glyph-name="alignment_window-align-quarter" d="M960 917.333h-938.667c-11.776 0-21.333-9.557-21.333-21.333v-938.667c0-11.776 9.557-21.333 21.333-21.333h938.667c11.776 0 21.333 9.557 21.333 21.333v938.667c0 11.776-9.557 21.333-21.333 21.333zM938.667 448h-426.667v426.667h426.667v-426.667zM469.333 874.667v-426.667h-426.667v426.667h426.667zM42.667 405.333h426.667v-426.667h-426.667v426.667zM512-21.333v426.667h426.667v-426.667h-426.667z" />
<glyph unicode="&#xe94c;" glyph-name="alignment_window-align-quarter-top" d="M960 917.333h-896c-11.776 0-21.333-9.557-21.333-21.333v-896c0-11.776 9.557-21.333 21.333-21.333h896c11.776 0 21.333 9.557 21.333 21.333v896c0 11.776-9.557 21.333-21.333 21.333zM938.667 874.667v-256h-853.333v256h853.333zM85.333 576h256v-554.667h-256v554.667zM384 21.333v554.667h554.667v-554.667h-554.667z" />
<glyph unicode="&#xe94d;" glyph-name="alignment_window-align-right" d="M42.667 896v-896c0-11.776 9.557-21.333 21.333-21.333h896c11.776 0 21.333 9.557 21.333 21.333v896c0 11.776-9.557 21.333-21.333 21.333h-896c-11.776 0-21.333-9.557-21.333-21.333zM938.667 21.333h-256v853.333h256v-853.333zM85.333 874.667h554.667v-853.333h-554.667v853.333z" />
<glyph unicode="&#xe94e;" glyph-name="alignment_window-align-thirds-top" d="M960 917.333h-896c-11.776 0-21.333-9.557-21.333-21.333v-896c0-11.776 9.557-21.333 21.333-21.333h896c11.776 0 21.333 9.557 21.333 21.333v896c0 11.776-9.557 21.333-21.333 21.333zM938.667 874.667v-256h-853.333v256h853.333zM640 576v-554.667h-256v554.667h256zM85.333 576h256v-554.667h-256v554.667zM682.667 21.333v554.667h256v-554.667h-256z" />
<glyph unicode="&#xe958;" glyph-name="arrows_arrow-box-inside" d="M490.667 960c-11.776 0-21.333-9.557-21.333-21.333v-503.168l-134.229 134.272c-8.32 8.32-21.845 8.32-30.165 0s-8.32-21.845 0-30.165l170.624-170.624c1.963-1.963 4.352-3.541 6.955-4.651s5.376-1.664 8.149-1.664 5.547 0.555 8.149 1.621c2.645 1.067 4.992 2.645 6.955 4.651l170.624 170.624c8.32 8.32 8.32 21.845 0 30.165s-21.845 8.32-30.165 0l-134.229-134.229v503.168c0 11.776-9.557 21.333-21.333 21.333zM853.333-42.667v682.667c0 11.776-9.557 21.333-21.333 21.333h-170.667c-11.776 0-21.333-9.557-21.333-21.333s9.557-21.333 21.333-21.333h149.333v-640h-640v640h149.333c11.776 0 21.333 9.557 21.333 21.333s-9.557 21.333-21.333 21.333h-170.667c-11.776 0-21.333-9.557-21.333-21.333v-682.667c0-11.776 9.557-21.333 21.333-21.333h682.667c11.776 0 21.333 9.557 21.333 21.333z" />
<glyph unicode="&#xe959;" glyph-name="arrows_arrow-box-outside" d="M490.667 362.667c11.776 0 21.333 9.557 21.333 21.333v503.168l134.229-134.229c4.181-4.181 9.643-6.272 15.104-6.272s10.923 2.091 15.104 6.229c8.32 8.32 8.32 21.845 0 30.165l-170.624 170.624c-1.963 1.963-4.352 3.541-6.955 4.651-5.205 2.176-11.093 2.176-16.299 0-2.645-1.067-4.992-2.645-6.955-4.651l-170.709-170.581c-8.32-8.32-8.32-21.845 0-30.165s21.845-8.32 30.165 0l134.272 134.229v-503.168c0-11.776 9.557-21.333 21.333-21.333zM128 640v-682.667c0-11.776 9.557-21.333 21.333-21.333h682.667c11.776 0 21.333 9.557 21.333 21.333v682.667c0 11.776-9.557 21.333-21.333 21.333h-170.667c-11.776 0-21.333-9.557-21.333-21.333s9.557-21.333 21.333-21.333h149.333v-640h-640v640h149.333c11.776 0 21.333 9.557 21.333 21.333s-9.557 21.333-21.333 21.333h-170.667c-11.776 0-21.333-9.557-21.333-21.333z" />
<glyph unicode="&#xe95a;" glyph-name="arrows_arrow-interruption" d="M1010.816 958.379c-2.603 1.067-5.376 1.621-8.149 1.621h-298.667c-11.776 0-21.333-9.557-21.333-21.333s9.557-21.333 21.333-21.333h247.168l-944.939-944.896c-8.32-8.32-8.32-21.845 0-30.165 4.181-4.181 9.643-6.272 15.104-6.272s10.923 2.091 15.104 6.229l944.896 944.939v-247.168c0-11.776 9.557-21.333 21.333-21.333s21.333 9.557 21.333 21.333v298.667c0 2.773-0.555 5.547-1.621 8.149-2.176 5.205-6.357 9.387-11.563 11.563zM1002.667 277.333c-11.776 0-21.333-9.557-21.333-21.333v-247.168l-331.563 331.563c-8.32 8.32-21.845 8.32-30.165 0s-8.32-21.845 0-30.165l331.563-331.563h-247.168c-11.776 0-21.333-9.557-21.333-21.333s9.557-21.333 21.333-21.333h298.667c2.773 0 5.547 0.555 8.149 1.621 5.205 2.176 9.387 6.315 11.563 11.563 1.067 2.603 1.621 5.376 1.621 8.149v298.667c0 11.776-9.557 21.333-21.333 21.333zM374.229 555.563c4.181-4.181 9.643-6.229 15.104-6.229s10.923 2.091 15.104 6.229c8.32 8.32 8.32 21.845 0 30.165l-368 368.043c-8.32 8.32-21.845 8.32-30.165 0s-8.32-21.845 0-30.165l367.957-368.043z" />
<glyph unicode="&#xe95b;" glyph-name="arrows_arrow-interruption-2" d="M72.832 917.333h247.168c11.776 0 21.333 9.557 21.333 21.333s-9.557 21.333-21.333 21.333h-298.667c-2.773 0-5.547-0.555-8.149-1.621-5.205-2.176-9.387-6.315-11.563-11.563-1.067-2.603-1.621-5.376-1.621-8.149v-298.667c0-11.776 9.557-21.333 21.333-21.333s21.333 9.557 21.333 21.333v247.168l944.896-944.896c4.181-4.181 9.643-6.272 15.104-6.272s10.923 2.091 15.104 6.229c8.32 8.32 8.32 21.845 0 30.165l-944.939 944.939zM987.563 953.771l-368-368c-8.32-8.32-8.32-21.845 0-30.165 4.181-4.181 9.643-6.229 15.104-6.229s10.923 2.091 15.104 6.229l368 368c8.32 8.32 8.32 21.845 0 30.165s-21.845 8.32-30.208 0zM374.229 340.437l-331.563-331.605v247.168c0 11.776-9.557 21.333-21.333 21.333s-21.333-9.557-21.333-21.333v-298.667c0-2.773 0.555-5.547 1.621-8.149 2.176-5.205 6.315-9.387 11.563-11.563 2.603-1.067 5.376-1.621 8.149-1.621h298.667c11.776 0 21.333 9.557 21.333 21.333s-9.557 21.333-21.333 21.333h-247.168l331.563 331.563c8.32 8.32 8.32 21.845 0 30.165s-21.803 8.363-30.165 0.043z" />
<glyph unicode="&#xe95c;" glyph-name="arrows_arrow-line-down" d="M475.563-57.728c1.963-1.963 4.352-3.541 6.955-4.651 2.603-1.067 5.376-1.621 8.149-1.621s5.547 0.555 8.149 1.621c2.645 1.067 4.992 2.645 6.955 4.651l469.291 469.291c8.32 8.32 8.32 21.845 0 30.165s-21.845 8.32-30.165 0l-432.896-432.896v887.168c0 11.776-9.557 21.333-21.333 21.333s-21.333-9.557-21.333-21.333v-887.168l-432.896 432.939c-8.32 8.32-21.845 8.32-30.165 0s-8.32-21.845 0-30.165l469.291-469.333z" />
<glyph unicode="&#xe95d;" glyph-name="arrows_arrow-line-left" d="M1002.667 448h-887.168l432.939 432.896c8.32 8.32 8.32 21.845 0 30.165s-21.845 8.32-30.165 0l-469.333-469.291c-1.963-1.963-3.541-4.352-4.651-6.955-2.176-5.205-2.176-11.093 0-16.299 1.067-2.645 2.645-4.992 4.651-6.955l469.291-469.291c4.181-4.181 9.643-6.272 15.104-6.272s10.923 2.091 15.104 6.229c8.32 8.32 8.32 21.845 0 30.165l-432.939 432.939h887.168c11.776 0 21.333 9.557 21.333 21.333s-9.557 21.333-21.333 21.333z" />
<glyph unicode="&#xe95e;" glyph-name="arrows_arrow-line-left-corner" d="M55.851-19.712c2.603-1.067 5.376-1.621 8.149-1.621h810.667c11.776 0 21.333 9.557 21.333 21.333s-9.557 21.333-21.333 21.333h-759.168l859.605 859.563c8.32 8.32 8.32 21.845 0 30.165s-21.845 8.32-30.165 0l-859.605-859.563v759.168c0 11.776-9.557 21.333-21.333 21.333s-21.333-9.557-21.333-21.333v-810.667c0-2.773 0.555-5.547 1.621-8.149 2.176-5.205 6.357-9.387 11.563-11.563z" />
<glyph unicode="&#xe95f;" glyph-name="arrows_arrow-line-left-top-corner" d="M896 896c0 11.776-9.557 21.333-21.333 21.333h-810.667c-2.773 0-5.547-0.555-8.149-1.621-5.205-2.176-9.387-6.315-11.563-11.563-1.067-2.603-1.621-5.376-1.621-8.149v-810.667c0-11.776 9.557-21.333 21.333-21.333s21.333 9.557 21.333 21.333v759.168l859.563-859.563c4.181-4.181 9.643-6.272 15.104-6.272s10.923 2.091 15.104 6.229c8.32 8.32 8.32 21.845 0 30.165l-859.605 859.605h759.168c11.776 0 21.333 9.557 21.333 21.333z" />
<glyph unicode="&#xe960;" glyph-name="arrows_arrow-line-right" d="M21.333 405.333h887.168l-432.939-432.896c-8.32-8.32-8.32-21.845 0-30.165 4.181-4.181 9.643-6.272 15.104-6.272s10.923 2.091 15.104 6.229l469.291 469.291c1.963 1.963 3.541 4.352 4.651 6.955 2.176 5.205 2.176 11.093 0 16.299-1.067 2.645-2.645 4.992-4.651 6.955l-469.291 469.376c-8.32 8.32-21.845 8.32-30.165 0s-8.32-21.845 0-30.165l432.896-432.939h-887.168c-11.776 0-21.333-9.557-21.333-21.333s9.557-21.333 21.333-21.333z" />
<glyph unicode="&#xe961;" glyph-name="arrows_arrow-line-right-corner" d="M908.501 21.333h-759.168c-11.776 0-21.333-9.557-21.333-21.333s9.557-21.333 21.333-21.333h810.667c2.773 0 5.547 0.555 8.149 1.621 5.205 2.176 9.387 6.315 11.563 11.563 1.067 2.603 1.621 5.376 1.621 8.149v810.667c0 11.776-9.557 21.333-21.333 21.333s-21.333-9.557-21.333-21.333v-759.168l-859.563 859.605c-8.32 8.32-21.845 8.32-30.165 0s-8.32-21.845 0-30.165l859.563-859.605z" />
<glyph unicode="&#xe962;" glyph-name="arrows_arrow-line-right-top-corner" d="M960 64c11.776 0 21.333 9.557 21.333 21.333v810.667c0 2.773-0.555 5.547-1.621 8.149-2.176 5.205-6.315 9.387-11.563 11.563-2.603 1.067-5.376 1.621-8.149 1.621h-810.667c-11.776 0-21.333-9.557-21.333-21.333s9.557-21.333 21.333-21.333h759.168l-859.605-859.563c-8.32-8.32-8.32-21.845 0-30.165 4.181-4.181 9.643-6.272 15.104-6.272s10.923 2.091 15.104 6.229l859.563 859.605v-759.168c0-11.776 9.557-21.333 21.333-21.333z" />
<glyph unicode="&#xe963;" glyph-name="arrows_arrow-line-up" d="M36.437 411.563l432.896 432.939v-887.168c0-11.776 9.557-21.333 21.333-21.333s21.333 9.557 21.333 21.333v887.168l432.896-432.896c4.181-4.181 9.643-6.272 15.104-6.272s10.923 2.091 15.104 6.229c8.32 8.32 8.32 21.845 0 30.165l-469.333 469.333c-1.963 1.963-4.352 3.541-6.955 4.651-5.205 2.176-11.093 2.176-16.299 0-2.645-1.067-4.992-2.645-6.955-4.651l-469.333-469.291c-8.32-8.32-8.32-21.845 0-30.165s21.845-8.363 30.208-0.043z" />
<glyph unicode="&#xe967;" glyph-name="arrows_arrows-rectangle" d="M21.333 618.667c11.776 0 21.333 9.557 21.333 21.333v247.168l219.563-219.563c4.181-4.181 9.643-6.272 15.104-6.272s10.923 2.091 15.104 6.229c8.32 8.32 8.32 21.845 0 30.165l-219.605 219.605h247.168c11.776 0 21.333 9.557 21.333 21.333s-9.557 21.333-21.333 21.333h-298.667c-2.773 0-5.547-0.555-8.149-1.621-5.205-2.176-9.387-6.315-11.563-11.563-1.067-2.603-1.621-5.376-1.621-8.149v-298.667c0-11.776 9.557-21.333 21.333-21.333zM320-21.333h-247.168l219.563 219.563c8.32 8.32 8.32 21.845 0 30.165s-21.845 8.32-30.165 0l-219.563-219.563v247.168c0 11.776-9.557 21.333-21.333 21.333s-21.333-9.557-21.333-21.333v-298.667c0-2.773 0.555-5.547 1.621-8.149 2.176-5.205 6.315-9.387 11.563-11.563 2.603-1.067 5.376-1.621 8.149-1.621h298.667c11.776 0 21.333 9.557 21.333 21.333s-9.557 21.333-21.333 21.333zM1010.816 958.379c-2.603 1.067-5.376 1.621-8.149 1.621h-298.667c-11.776 0-21.333-9.557-21.333-21.333s9.557-21.333 21.333-21.333h247.168l-219.563-219.563c-8.32-8.32-8.32-21.845 0-30.165 4.139-4.181 9.6-6.272 15.061-6.272s10.923 2.091 15.104 6.229l219.563 219.605v-247.168c0-11.776 9.557-21.333 21.333-21.333s21.333 9.557 21.333 21.333v298.667c0 2.773-0.555 5.547-1.621 8.149-2.176 5.205-6.357 9.387-11.563 11.563zM1002.667 277.333c-11.776 0-21.333-9.557-21.333-21.333v-247.168l-219.563 219.563c-8.32 8.32-21.845 8.32-30.165 0s-8.32-21.845 0-30.165l219.563-219.563h-247.168c-11.776 0-21.333-9.557-21.333-21.333s9.557-21.333 21.333-21.333h298.667c2.773 0 5.547 0.555 8.149 1.621 5.205 2.176 9.387 6.315 11.563 11.563 1.067 2.603 1.621 5.376 1.621 8.149v298.667c0 11.776-9.557 21.333-21.333 21.333zM298.667 640v-384c0-11.776 9.557-21.333 21.333-21.333h384c11.776 0 21.333 9.557 21.333 21.333v384c0 11.776-9.557 21.333-21.333 21.333h-384c-11.776 0-21.333-9.557-21.333-21.333zM341.333 618.667h341.333v-341.333h-341.333v341.333z" />
<glyph unicode="&#xe970;" glyph-name="arrows_bow-arrow-top-left" d="M1009.408 631.808l-981.333 327.125c-7.68 2.603-16.085 0.555-21.845-5.163-5.675-5.717-7.68-14.208-5.163-21.845l327.125-981.333c2.944-8.704 11.093-14.592 20.267-14.592 0.043 0 0.128 0 0.171 0 9.259 0.085 17.408 6.101 20.181 14.933l153.088 487.125 487.168 153.131c8.789 2.773 14.848 10.923 14.933 20.181s-5.803 17.493-14.592 20.437zM498.475 475.477c-6.613-2.091-11.819-7.296-13.909-13.952l-136.704-434.944-292.779 878.336 878.336-292.779-434.944-136.661z" />
<glyph unicode="&#xe973;" glyph-name="arrows_double-arrow-down" d="M496 28.544c4.053-4.565 9.899-7.211 16-7.211s11.947 2.645 16 7.211l490.667 554.667c7.808 8.832 6.997 22.272-1.835 30.123-8.747 7.723-22.315 6.997-30.123-1.835l-474.709-536.661-474.667 536.619c-7.808 8.875-21.333 9.6-30.123 1.835-8.832-7.808-9.685-21.291-1.835-30.123l490.624-554.624zM496 284.544c4.053-4.565 9.899-7.211 16-7.211s11.947 2.645 16 7.211l490.667 554.667c7.808 8.832 6.997 22.272-1.835 30.123-8.747 7.765-22.315 6.997-30.123-1.835l-474.709-536.661-474.667 536.619c-7.808 8.875-21.333 9.643-30.123 1.835-8.832-7.808-9.685-21.291-1.835-30.123l490.624-554.624z" />
<glyph unicode="&#xe974;" glyph-name="arrows_double-arrow-left" d="M647.211-58.667c4.053-3.541 9.088-5.333 14.123-5.333 5.888 0 11.776 2.432 16 7.211 7.808 8.832 6.997 22.272-1.835 30.123l-536.661 474.667 536.619 474.667c8.832 7.808 9.685 21.291 1.835 30.123-7.851 8.875-21.333 9.643-30.123 1.835l-554.667-490.667c-4.523-4.011-7.168-9.856-7.168-15.957s2.645-11.947 7.211-16l554.667-490.667zM341.333 448c0-6.101 2.645-11.947 7.211-16l554.667-490.667c4.053-3.541 9.088-5.333 14.123-5.333 5.888 0 11.776 2.432 16 7.211 7.808 8.832 6.997 22.272-1.835 30.123l-536.661 474.667 536.619 474.667c8.832 7.808 9.685 21.291 1.835 30.123-7.851 8.875-21.333 9.643-30.123 1.835l-554.667-490.667c-4.523-4.011-7.168-9.856-7.168-15.957z" />
<glyph unicode="&#xe975;" glyph-name="arrows_double-arrow-right" d="M346.667 952.789c-7.808-8.789-6.955-22.272 1.877-30.123l536.619-474.667-536.619-474.667c-8.832-7.808-9.685-21.291-1.835-30.123 4.181-4.779 10.069-7.211 15.957-7.211 5.035 0 10.069 1.792 14.123 5.333l554.667 490.667c4.565 4.053 7.211 9.899 7.211 16s-2.645 11.947-7.211 16l-554.667 490.667c-8.747 7.765-22.272 6.955-30.123-1.877zM90.667-56.789c4.224-4.779 10.112-7.211 16-7.211 5.035 0 10.069 1.792 14.123 5.333l554.667 490.667c4.565 4.053 7.211 9.899 7.211 16s-2.645 11.947-7.211 16l-554.667 490.667c-8.747 7.765-22.272 6.955-30.123-1.877-7.808-8.789-6.955-22.272 1.877-30.123l536.619-474.667-536.619-474.667c-8.832-7.851-9.685-21.333-1.877-30.123z" />
<glyph unicode="&#xe976;" glyph-name="arrows_double-arrow-up" d="M37.333 284.544l474.667 536.619 474.667-536.619c4.224-4.779 10.112-7.211 16-7.211 5.035 0 10.069 1.792 14.123 5.333 8.832 7.808 9.685 21.291 1.835 30.123l-490.667 554.667c-8.064 9.173-23.893 9.173-31.957 0l-490.667-554.667c-7.808-8.832-6.997-22.272 1.835-30.123 8.832-7.765 22.357-6.997 30.165 1.877zM37.333 28.544l474.667 536.619 474.667-536.619c4.224-4.779 10.112-7.211 16-7.211 5.035 0 10.069 1.792 14.123 5.333 8.832 7.808 9.685 21.291 1.835 30.123l-490.667 554.667c-8.064 9.173-23.893 9.173-31.957 0l-490.667-554.667c-7.808-8.832-6.997-22.272 1.835-30.123 8.832-7.765 22.357-7.040 30.165 1.877z" />
<glyph unicode="&#xe979;" glyph-name="arrows_down-arrow" d="M496 156.544c4.053-4.565 9.899-7.211 16-7.211s11.947 2.645 16 7.211l490.667 554.667c7.808 8.832 6.997 22.272-1.835 30.123-8.747 7.765-22.315 6.997-30.123-1.835l-474.709-536.661-474.667 536.619c-7.808 8.832-21.333 9.643-30.123 1.835-8.832-7.808-9.685-21.291-1.835-30.123l490.624-554.624z" />
<glyph unicode="&#xe97a;" glyph-name="arrows_down-arrow-circle" d="M512 960c-282.325 0-512-229.675-512-512s229.675-512 512-512 512 229.675 512 512-229.675 512-512 512zM512-21.333c-258.773 0-469.333 210.56-469.333 469.333s210.56 469.333 469.333 469.333 469.333-210.56 469.333-469.333-210.56-469.333-469.333-469.333zM815.616 610.987l-303.616-364.331-303.616 364.331c-7.595 9.131-21.035 10.24-30.037 2.731-9.045-7.509-10.283-20.992-2.731-30.037l320-384c4.053-4.864 10.069-7.68 16.384-7.68s12.331 2.816 16.384 7.68l320 384c7.552 9.045 6.315 22.528-2.688 30.080-9.045 7.424-22.485 6.315-30.080-2.773z" />
<glyph unicode="&#xe97b;" glyph-name="arrows_down-arrow-closed" d="M496.043 156.544c4.053-4.565 9.813-7.211 15.957-7.211s11.904 2.645 15.957 7.211l490.667 554.667c5.589 6.272 6.955 15.232 3.499 22.912-3.456 7.637-11.093 12.544-19.456 12.544h-981.333c-8.363 0-16-4.907-19.456-12.544-3.456-7.68-2.091-16.64 3.499-22.912l490.667-554.667zM955.307 704l-443.307-501.163-443.307 501.163h886.613z" />
<glyph unicode="&#xe97f;" glyph-name="arrows_down-line-arrow-circle" d="M490.667-64c270.549 0 490.667 220.117 490.667 490.667s-220.117 490.667-490.667 490.667-490.667-220.117-490.667-490.667 220.117-490.667 490.667-490.667zM490.667 874.667c247.040 0 448-200.96 448-448s-200.96-448-448-448-448 200.96-448 448 200.96 448 448 448zM475.563 112.939c1.963-1.963 4.352-3.541 6.955-4.651 2.603-1.067 5.376-1.621 8.149-1.621s5.547 0.555 8.149 1.621c2.645 1.067 4.992 2.645 6.955 4.651l298.624 298.624c8.32 8.32 8.32 21.845 0 30.165s-21.845 8.32-30.165 0l-262.229-262.229v545.835c0 11.776-9.557 21.333-21.333 21.333s-21.333-9.557-21.333-21.333v-545.835l-262.229 262.229c-8.32 8.32-21.845 8.32-30.165 0s-8.32-21.845 0-30.165l298.624-298.624z" />
<glyph unicode="&#xe980;" glyph-name="arrows_download-arrow" d="M490.667 960c-11.776 0-21.333-9.557-21.333-21.333v-759.168l-176.896 176.896c-8.32 8.32-21.845 8.32-30.165 0s-8.32-21.845 0-30.165l213.291-213.291c1.963-1.963 4.352-3.541 6.955-4.651 2.603-1.067 5.376-1.621 8.149-1.621s5.547 0.555 8.149 1.621c2.645 1.067 4.992 2.645 6.955 4.651l213.291 213.291c8.32 8.32 8.32 21.845 0 30.165s-21.845 8.32-30.165 0l-176.896-176.896v759.168c0 11.776-9.557 21.333-21.333 21.333zM917.333 277.333c-11.776 0-21.333-9.557-21.333-21.333v-277.333h-810.667v277.333c0 11.776-9.557 21.333-21.333 21.333s-21.333-9.557-21.333-21.333v-298.667c0-11.776 9.557-21.333 21.333-21.333h853.333c11.776 0 21.333 9.557 21.333 21.333v298.667c0 11.776-9.557 21.333-21.333 21.333z" />
<glyph unicode="&#xe981;" glyph-name="arrows_expand-all-directions" d="M6.272 411.563l170.624-170.624c4.181-4.181 9.643-6.272 15.104-6.272s10.923 2.091 15.104 6.229c8.32 8.32 8.32 21.845 0 30.165l-134.272 134.272h396.501v-396.501l-134.229 134.229c-8.32 8.32-21.845 8.32-30.165 0s-8.32-21.845 0-30.165l170.624-170.624c1.963-1.963 4.352-3.541 6.955-4.651 2.603-1.067 5.376-1.621 8.149-1.621s5.547 0.555 8.149 1.621c2.645 1.067 4.992 2.645 6.955 4.651l170.624 170.624c8.32 8.32 8.32 21.845 0 30.165s-21.845 8.32-30.165 0l-134.229-134.229v396.501h396.501l-134.229-134.229c-8.32-8.32-8.32-21.845 0-30.165 4.139-4.181 9.6-6.272 15.061-6.272s10.923 2.091 15.104 6.229l170.624 170.624c1.963 1.963 3.541 4.352 4.651 6.955 2.176 5.205 2.176 11.093 0 16.299-1.067 2.645-2.645 4.992-4.651 6.955l-170.624 170.624c-8.32 8.32-21.845 8.32-30.165 0s-8.32-21.845 0-30.165l134.229-134.187h-396.501v396.501l134.229-134.229c4.181-4.181 9.643-6.272 15.104-6.272s10.923 2.091 15.104 6.229c8.32 8.32 8.32 21.845 0 30.165l-170.624 170.624c-1.963 1.963-4.352 3.541-6.955 4.651-5.205 2.176-11.093 2.176-16.299 0-2.645-1.067-4.992-2.645-6.955-4.651l-170.709-170.581c-8.32-8.32-8.32-21.845 0-30.165s21.845-8.32 30.165 0l134.272 134.229v-396.501h-396.501l134.229 134.229c8.32 8.32 8.32 21.845 0 30.165s-21.845 8.32-30.165 0l-170.624-170.624c-1.963-1.963-3.541-4.352-4.651-6.955-2.176-5.205-2.176-11.093 0-16.299 1.109-2.603 2.688-4.992 4.651-6.955z" />
<glyph unicode="&#xe984;" glyph-name="arrows_expand-arrows-1" d="M1010.816 958.379c-2.603 1.067-5.376 1.621-8.149 1.621h-298.667c-11.776 0-21.333-9.557-21.333-21.333s9.557-21.333 21.333-21.333h247.168l-908.501-908.501v247.168c0 11.776-9.557 21.333-21.333 21.333s-21.333-9.557-21.333-21.333v-298.667c0-2.773 0.555-5.547 1.621-8.149 2.176-5.205 6.315-9.387 11.563-11.563 2.603-1.067 5.376-1.621 8.149-1.621h298.667c11.776 0 21.333 9.557 21.333 21.333s-9.557 21.333-21.333 21.333h-247.168l908.501 908.501v-247.168c0-11.776 9.557-21.333 21.333-21.333s21.333 9.557 21.333 21.333v298.667c0 2.773-0.555 5.547-1.621 8.149-2.176 5.205-6.357 9.387-11.563 11.563z" />
<glyph unicode="&#xe985;" glyph-name="arrows_expand-arrows-2" d="M1002.667 277.333c-11.776 0-21.333-9.557-21.333-21.333v-247.168l-908.501 908.501h247.168c11.776 0 21.333 9.557 21.333 21.333s-9.557 21.333-21.333 21.333h-298.667c-2.773 0-5.547-0.555-8.149-1.621-5.205-2.176-9.387-6.315-11.563-11.563-1.067-2.603-1.621-5.376-1.621-8.149v-298.667c0-11.776 9.557-21.333 21.333-21.333s21.333 9.557 21.333 21.333v247.168l908.501-908.501h-247.168c-11.776 0-21.333-9.557-21.333-21.333s9.557-21.333 21.333-21.333h298.667c2.773 0 5.547 0.555 8.149 1.621 5.205 2.176 9.387 6.315 11.563 11.563 1.067 2.603 1.621 5.376 1.621 8.149v298.667c0 11.776-9.557 21.333-21.333 21.333z" />
<glyph unicode="&#xe986;" glyph-name="arrows_expand-arrows-all-directions" d="M1010.816 958.379c-2.603 1.067-5.376 1.621-8.149 1.621h-298.667c-11.776 0-21.333-9.557-21.333-21.333s9.557-21.333 21.333-21.333h247.168l-439.168-439.168-439.168 439.168h247.168c11.776 0 21.333 9.557 21.333 21.333s-9.557 21.333-21.333 21.333h-298.667c-2.773 0-5.547-0.555-8.149-1.621-5.205-2.176-9.387-6.315-11.563-11.563-1.067-2.603-1.621-5.376-1.621-8.149v-298.667c0-11.776 9.557-21.333 21.333-21.333s21.333 9.557 21.333 21.333v247.168l439.168-439.168-439.168-439.168v247.168c0 11.776-9.557 21.333-21.333 21.333s-21.333-9.557-21.333-21.333v-298.667c0-2.773 0.555-5.547 1.621-8.149 2.176-5.205 6.315-9.387 11.563-11.563 2.603-1.067 5.376-1.621 8.149-1.621h298.667c11.776 0 21.333 9.557 21.333 21.333s-9.557 21.333-21.333 21.333h-247.168l439.168 439.168 439.168-439.168h-247.168c-11.776 0-21.333-9.557-21.333-21.333s9.557-21.333 21.333-21.333h298.667c2.773 0 5.547 0.555 8.149 1.621 5.205 2.176 9.387 6.315 11.563 11.563 1.067 2.603 1.621 5.376 1.621 8.149v298.667c0 11.776-9.557 21.333-21.333 21.333s-21.333-9.557-21.333-21.333v-247.168l-439.168 439.168 439.168 439.168v-247.168c0-11.776 9.557-21.333 21.333-21.333s21.333 9.557 21.333 21.333v298.667c0 2.773-0.555 5.547-1.621 8.149-2.176 5.205-6.357 9.387-11.563 11.563z" />
<glyph unicode="&#xe989;" glyph-name="arrows_expand-target" d="M1002.667 960h-384c-11.776 0-21.333-9.557-21.333-21.333s9.557-21.333 21.333-21.333h362.667v-362.667c0-11.776 9.557-21.333 21.333-21.333s21.333 9.557 21.333 21.333v384c0 11.776-9.557 21.333-21.333 21.333zM21.333 533.333c11.776 0 21.333 9.557 21.333 21.333v362.667h362.667c11.776 0 21.333 9.557 21.333 21.333s-9.557 21.333-21.333 21.333h-384c-11.776 0-21.333-9.557-21.333-21.333v-384c0-11.776 9.557-21.333 21.333-21.333zM21.333-64h384c11.776 0 21.333 9.557 21.333 21.333s-9.557 21.333-21.333 21.333h-362.667v362.667c0 11.776-9.557 21.333-21.333 21.333s-21.333-9.557-21.333-21.333v-384c0-11.776 9.557-21.333 21.333-21.333zM1002.667 362.667c-11.776 0-21.333-9.557-21.333-21.333v-362.667h-362.667c-11.776 0-21.333-9.557-21.333-21.333s9.557-21.333 21.333-21.333h384c11.776 0 21.333 9.557 21.333 21.333v384c0 11.776-9.557 21.333-21.333 21.333z" />
<glyph unicode="&#xe98c;" glyph-name="arrows_increasing-arrows" d="M804.437 953.771c-8.32 8.32-21.845 8.32-30.165 0l-128-128c-8.32-8.32-8.32-21.845 0-30.165s21.845-8.32 30.165 0l93.739 93.739v-932.011c0-11.776 9.557-21.333 21.333-21.333s21.333 9.557 21.333 21.333v927.701l89.429-89.429c4.139-4.181 9.6-6.272 15.061-6.272s10.923 2.091 15.104 6.229c8.32 8.32 8.32 21.845 0 30.165l-128 128.043zM505.771 697.771c-8.32 8.32-21.845 8.32-30.165 0l-128-128c-8.32-8.32-8.32-21.845 0-30.165s21.845-8.32 30.165 0l93.739 93.739v-676.011c0-11.776 9.557-21.333 21.333-21.333s21.333 9.557 21.333 21.333v671.701l89.429-89.429c4.139-4.181 9.6-6.272 15.061-6.272s10.923 2.091 15.104 6.229c8.32 8.32 8.32 21.845 0 30.165l-128 128.043zM207.104 441.771c-8.32 8.32-21.845 8.32-30.165 0l-128-128c-8.32-8.32-8.32-21.845 0-30.165s21.845-8.32 30.165 0l93.739 93.739v-420.011c0-11.776 9.557-21.333 21.333-21.333s21.333 9.557 21.333 21.333v415.701l89.429-89.429c4.139-4.181 9.6-6.272 15.061-6.272s10.923 2.091 15.104 6.229c8.32 8.32 8.32 21.845 0 30.165l-128 128.043z" />
<glyph unicode="&#xe98e;" glyph-name="arrows_left-arrow" d="M775.211-58.667c4.053-3.541 9.088-5.333 14.123-5.333 5.888 0 11.776 2.432 16 7.211 7.808 8.832 6.997 22.272-1.835 30.123l-536.661 474.667 536.619 474.667c8.832 7.808 9.685 21.291 1.835 30.123-7.851 8.875-21.333 9.643-30.123 1.835l-554.667-490.667c-4.523-4.011-7.168-9.856-7.168-15.957s2.645-11.947 7.211-16l554.667-490.667z" />
<glyph unicode="&#xe98f;" glyph-name="arrows_left-arrow-circle" d="M512 960c-282.325 0-512-229.675-512-512s229.675-512 512-512 512 229.675 512 512-229.675 512-512 512zM512-21.333c-258.773 0-469.333 210.56-469.333 469.333s210.56 469.333 469.333 469.333 469.333-210.56 469.333-469.333-210.56-469.333-469.333-469.333zM677.717 781.653c-7.552 9.088-21.035 10.197-30.037 2.731l-384-320c-4.907-4.053-7.68-10.069-7.68-16.384s2.773-12.331 7.68-16.384l384-320c3.968-3.328 8.832-4.949 13.653-4.949 6.101 0 12.16 2.603 16.384 7.68 7.552 9.045 6.315 22.528-2.688 30.080l-364.373 303.573 364.331 303.616c9.045 7.509 10.283 20.992 2.731 30.037z" />
<glyph unicode="&#xe990;" glyph-name="arrows_left-arrow-closed" d="M775.211-58.667c3.968-3.499 9.003-5.333 14.123-5.333 2.944 0 5.973 0.64 8.747 1.877 7.68 3.456 12.587 11.051 12.587 19.456v981.333c0 8.405-4.907 16-12.587 19.456-7.637 3.456-16.64 2.048-22.869-3.499l-554.667-490.667c-4.565-4.011-7.211-9.856-7.211-15.957s2.645-11.947 7.211-16l554.667-490.667zM768 891.307v-886.613l-501.12 443.307 501.12 443.307z" />
<glyph unicode="&#xe997;" glyph-name="arrows_left-line-arrow-circle" d="M490.667-64c270.549 0 490.667 220.117 490.667 490.667s-220.117 490.667-490.667 490.667-490.667-220.117-490.667-490.667 220.117-490.667 490.667-490.667zM490.667 874.667c247.040 0 448-200.96 448-448s-200.96-448-448-448-448 200.96-448 448 200.96 448 448 448zM172.288 418.517c1.067-2.645 2.645-4.992 4.651-6.955l298.624-298.624c4.181-4.181 9.643-6.272 15.104-6.272s10.923 2.091 15.104 6.229c8.32 8.32 8.32 21.845 0 30.165l-262.272 262.272h545.835c11.776 0 21.333 9.557 21.333 21.333s-9.557 21.333-21.333 21.333h-545.835l262.229 262.229c8.32 8.32 8.32 21.845 0 30.165s-21.845 8.32-30.165 0l-298.624-298.624c-1.963-1.963-3.541-4.352-4.651-6.955-2.133-5.205-2.133-11.093 0-16.299z" />
<glyph unicode="&#xe998;" glyph-name="arrows_left-right-align" d="M1017.771 612.437l-213.333 213.333c-8.32 8.32-21.845 8.32-30.165 0s-8.32-20.736 0-29.099l179.072-178.005h-932.011c-11.776 0-21.333-9.557-21.333-21.333s9.557-21.333 21.333-21.333h927.659l-174.763-175.829c-8.32-8.32-8.32-22.357 0-30.72 4.181-4.181 9.643-6.528 15.104-6.528s10.923 1.963 15.104 6.101l206.677 206.592c7.552 3.285 12.885 10.795 12.885 19.584 0 0.384-0.213 0.683-0.213 1.067 0.299 5.803-1.579 11.691-6.016 16.171zM1002.667 277.333h-927.659l174.763 175.829c8.32 8.32 8.32 22.357 0 30.72s-21.845 8.619-30.165 0.256l-206.677-206.507c-7.595-3.285-12.928-10.752-12.928-19.541 0-0.384 0.213-0.64 0.213-1.024-0.299-5.845 1.579-11.733 6.016-16.171l213.333-213.333c4.181-4.139 9.643-6.229 15.104-6.229s10.923 2.091 15.104 6.272c8.32 8.32 8.32 20.736 0 29.099l-179.115 177.963h932.011c11.776 0 21.333 9.557 21.333 21.333s-9.557 21.333-21.333 21.333z" />
<glyph unicode="&#xe9a0;" glyph-name="arrows_minimize" d="M6.229 953.771c-8.32-8.32-8.32-21.845 0-30.165l390.272-390.272h-247.168c-11.776 0-21.333-9.557-21.333-21.333s9.557-21.333 21.333-21.333h298.667c2.773 0 5.547 0.555 8.149 1.621 5.205 2.176 9.387 6.315 11.563 11.563 1.067 2.603 1.621 5.376 1.621 8.149v298.667c0 11.776-9.557 21.333-21.333 21.333s-21.333-9.557-21.333-21.333v-247.168l-390.229 390.272c-8.363 8.32-21.845 8.32-30.208 0zM987.563 953.771l-390.229-390.272v247.168c0 11.776-9.557 21.333-21.333 21.333s-21.333-9.557-21.333-21.333v-298.667c0-2.773 0.555-5.547 1.621-8.149 2.176-5.205 6.315-9.387 11.563-11.563 2.603-1.067 5.376-1.621 8.149-1.621h298.667c11.776 0 21.333 9.557 21.333 21.333s-9.557 21.333-21.333 21.333h-247.168l390.229 390.229c8.32 8.32 8.32 21.845 0 30.165s-21.803 8.363-30.165 0.043zM627.499 362.667h247.168c11.776 0 21.333 9.557 21.333 21.333s-9.557 21.333-21.333 21.333h-298.667c-2.773 0-5.547-0.555-8.149-1.621-5.205-2.176-9.387-6.315-11.563-11.563-1.067-2.603-1.621-5.376-1.621-8.149v-298.667c0-11.776 9.557-21.333 21.333-21.333s21.333 9.557 21.333 21.333v247.168l390.229-390.229c4.181-4.181 9.643-6.272 15.104-6.272s10.923 2.091 15.104 6.229c8.32 8.32 8.32 21.845 0 30.165l-390.272 390.272zM21.333-64c5.461 0 10.923 2.091 15.104 6.229l390.229 390.272v-247.168c0-11.776 9.557-21.333 21.333-21.333s21.333 9.557 21.333 21.333v298.667c0 2.773-0.555 5.547-1.621 8.149-2.176 5.205-6.315 9.387-11.563 11.563-2.603 1.067-5.376 1.621-8.149 1.621h-298.667c-11.776 0-21.333-9.557-21.333-21.333s9.557-21.333 21.333-21.333h247.168l-390.229-390.229c-8.32-8.32-8.32-21.845 0-30.165 4.139-4.181 9.6-6.272 15.061-6.272z" />
<glyph unicode="&#xe9a2;" glyph-name="arrows_minimize-arrows-3" d="M1002.667 576h-362.667v362.667c0 11.776-9.557 21.333-21.333 21.333s-21.333-9.557-21.333-21.333v-384c0-11.776 9.557-21.333 21.333-21.333h384c11.776 0 21.333 9.557 21.333 21.333s-9.557 21.333-21.333 21.333zM0 554.667c0-11.776 9.557-21.333 21.333-21.333h384c11.776 0 21.333 9.557 21.333 21.333v384c0 11.776-9.557 21.333-21.333 21.333s-21.333-9.557-21.333-21.333v-362.667h-362.667c-11.776 0-21.333-9.557-21.333-21.333zM384-42.667c0-11.776 9.557-21.333 21.333-21.333s21.333 9.557 21.333 21.333v384c0 11.776-9.557 21.333-21.333 21.333h-384c-11.776 0-21.333-9.557-21.333-21.333s9.557-21.333 21.333-21.333h362.667v-362.667zM1002.667 362.667h-384c-11.776 0-21.333-9.557-21.333-21.333v-384c0-11.776 9.557-21.333 21.333-21.333s21.333 9.557 21.333 21.333v362.667h362.667c11.776 0 21.333 9.557 21.333 21.333s-9.557 21.333-21.333 21.333z" />
<glyph unicode="&#xe9a4;" glyph-name="arrows_minimize-line-arrows-3" d="M987.563 953.771l-432.896-432.939v332.501c0 11.776-9.557 21.333-21.333 21.333s-21.333-9.557-21.333-21.333v-384c0-2.773 0.555-5.547 1.621-8.149 2.176-5.205 6.315-9.387 11.563-11.563 2.603-1.067 5.376-1.621 8.149-1.621h384c11.776 0 21.333 9.557 21.333 21.333s-9.557 21.333-21.333 21.333h-332.501l432.939 432.896c8.32 8.32 8.32 21.845 0 30.165s-21.845 8.363-30.208 0.043zM21.333-64c5.461 0 10.923 2.091 15.104 6.229l432.896 432.939v-332.501c0-11.776 9.557-21.333 21.333-21.333s21.333 9.557 21.333 21.333v384c0 2.773-0.555 5.547-1.621 8.149-2.176 5.205-6.315 9.387-11.563 11.563-2.603 1.067-5.376 1.621-8.149 1.621h-384c-11.776 0-21.333-9.557-21.333-21.333s9.557-21.333 21.333-21.333h332.501l-432.939-432.896c-8.32-8.32-8.32-21.845 0-30.165 4.181-4.181 9.643-6.272 15.104-6.272z" />
<glyph unicode="&#xe9a9;" glyph-name="arrows_refresh" d="M917.333 960c-11.776 0-21.333-9.557-21.333-21.333v-221.312c-86.997 123.392-230.357 199.979-384 199.979-258.773 0-469.333-210.56-469.333-469.333 0-11.776 9.557-21.333 21.333-21.333s21.333 9.557 21.333 21.333c0 235.264 191.403 426.667 426.667 426.667 152.149 0 292.565-83.072 368.299-213.333h-261.632c-11.776 0-21.333-9.557-21.333-21.333s9.557-21.333 21.333-21.333h298.368c2.219 0 4.395 0.555 6.528 1.28 0.725 0.213 1.536 0.256 2.261 0.555 0.085 0.043 0.171 0.043 0.213 0.043 0.555 0.256 0.853 0.725 1.365 1.024 6.613 3.627 11.264 10.368 11.264 18.432v298.667c0 11.776-9.557 21.333-21.333 21.333zM960 469.333c-11.776 0-21.333-9.557-21.333-21.333 0-235.264-191.403-426.667-426.667-426.667-153.856 0-292.181 81.493-368.427 213.333h261.76c11.776 0 21.333 9.557 21.333 21.333s-9.557 21.333-21.333 21.333h-298.667c-11.776 0-21.333-9.557-21.333-21.333v-298.667c0-11.776 9.557-21.333 21.333-21.333s21.333 9.557 21.333 21.333v220.971c87.083-124.501 228.608-199.637 384-199.637 258.773 0 469.333 210.56 469.333 469.333 0 11.776-9.557 21.333-21.333 21.333z" />
<glyph unicode="&#xe9ab;" glyph-name="arrows_refresh-3" d="M597.333 597.333c0-11.776 9.557-21.333 21.333-21.333h298.667c11.776 0 21.333 9.557 21.333 21.333v298.667c0 11.776-9.557 21.333-21.333 21.333s-21.333-9.557-21.333-21.333v-221.312c-87.040 123.349-230.613 199.979-384 199.979-258.773 0-469.333-210.56-469.333-469.333s210.56-469.333 469.333-469.333 469.333 210.56 469.333 469.333c0 11.776-9.557 21.333-21.333 21.333s-21.333-9.557-21.333-21.333c0-235.264-191.403-426.667-426.667-426.667s-426.667 191.403-426.667 426.667c0 235.264 191.403 426.667 426.667 426.667 151.893 0 292.565-83.157 368.299-213.333h-261.632c-11.776 0-21.333-9.557-21.333-21.333z" />
<glyph unicode="&#xe9ae;" glyph-name="arrows_right-arrow" d="M218.667-56.789c4.224-4.779 10.112-7.211 16-7.211 5.035 0 10.069 1.792 14.123 5.333l554.667 490.667c4.565 4.053 7.211 9.899 7.211 16s-2.645 11.947-7.211 16l-554.667 490.667c-8.747 7.723-22.272 6.997-30.123-1.877-7.808-8.789-6.955-22.272 1.877-30.123l536.619-474.667-536.619-474.667c-8.832-7.851-9.685-21.333-1.877-30.123z" />
<glyph unicode="&#xe9af;" glyph-name="arrows_right-arrow-circle" d="M512 960c-282.325 0-512-229.675-512-512s229.675-512 512-512 512 229.675 512 512-229.675 512-512 512zM512-21.333c-258.773 0-469.333 210.56-469.333 469.333s210.56 469.333 469.333 469.333 469.333-210.56 469.333-469.333-210.56-469.333-469.333-469.333zM376.32 784.384c-9.003 7.467-22.443 6.357-30.037-2.731-7.552-9.045-6.315-22.528 2.731-30.037l364.331-303.616-364.331-303.616c-9.045-7.552-10.24-20.992-2.688-30.080 4.181-5.035 10.24-7.637 16.341-7.637 4.821 0 9.685 1.621 13.653 4.949l384 320c4.907 4.053 7.68 10.069 7.68 16.384s-2.773 12.331-7.68 16.384l-384 320z" />
<glyph unicode="&#xe9b0;" glyph-name="arrows_right-arrow-closed" d="M225.92-62.123c2.773-1.237 5.803-1.877 8.747-1.877 5.12 0 10.155 1.835 14.123 5.333l554.667 490.667c4.565 4.053 7.211 9.899 7.211 16s-2.645 11.947-7.211 16l-554.667 490.667c-6.229 5.547-15.232 6.912-22.869 3.499-7.68-3.499-12.587-11.093-12.587-19.499v-981.333c0-8.405 4.907-16 12.587-19.456zM256 891.307l501.12-443.307-501.12-443.307v886.613z" />
<glyph unicode="&#xe9b6;" glyph-name="arrows_right-line-arrow-circle" d="M490.667-64c270.549 0 490.667 220.117 490.667 490.667s-220.117 490.667-490.667 490.667-490.667-220.117-490.667-490.667 220.117-490.667 490.667-490.667zM490.667 874.667c247.040 0 448-200.96 448-448s-200.96-448-448-448-448 200.96-448 448 200.96 448 448 448zM192 405.333h545.835l-262.229-262.229c-8.32-8.32-8.32-21.845 0-30.165 4.139-4.181 9.6-6.272 15.061-6.272s10.923 2.091 15.104 6.229l298.624 298.624c1.963 1.963 3.541 4.352 4.651 6.955 2.176 5.205 2.176 11.093 0 16.299-1.067 2.645-2.645 4.992-4.651 6.955l-298.624 298.624c-8.32 8.32-21.845 8.32-30.165 0s-8.32-21.845 0-30.165l262.229-262.187h-545.835c-11.776 0-21.333-9.557-21.333-21.333s9.557-21.333 21.333-21.333z" />
<glyph unicode="&#xe9b8;" glyph-name="arrows_right-ways-2" d="M298.581 215.808l112.939 115.712c8.235 8.448 8.064 21.973-0.384 30.165-8.405 8.277-21.888 8.021-30.165-0.341l-112.725-115.499c-34.475-34.219-77.952-53.845-119.339-53.845h-127.573c-11.776 0-21.333-9.557-21.333-21.333s9.557-21.333 21.333-21.333h127.573c52.565 0 107.051 24.107 149.675 66.475zM847.104 911.104c-8.32 8.32-21.845 8.32-30.165 0s-8.32-21.845 0-30.165l134.229-134.272h-19.371c-27.179 0-78.677-4.523-83.584-5.163-71.339-15.744-136.619-51.413-188.8-103.168l-63.232-62.933c-8.363-8.32-8.405-21.845-0.085-30.165 4.181-4.224 9.643-6.272 15.104-6.272 5.419 0 10.88 2.091 15.061 6.229l63.189 62.891c46.379 46.037 104.491 77.781 165.248 91.392 0.512 0 51.84 4.523 77.099 4.523h19.371l-134.229-134.229c-8.32-8.32-8.32-21.845 0-30.165 4.139-4.181 9.6-6.272 15.061-6.272s10.923 2.091 15.104 6.229l170.667 170.667c8.32 8.32 8.32 21.845 0 30.165l-170.667 170.709zM847.104 356.437c-8.32 8.32-21.845 8.32-30.165 0s-8.32-21.845 0-30.165l134.229-134.272h-76.075c-41.387 0-84.864 19.627-119.125 53.632l-391.424 392.747c-52.139 51.712-117.419 87.381-191.488 103.552-2.176 0.213-53.717 4.736-80.896 4.736h-70.827c-11.776 0-21.333-9.557-21.333-21.333s9.557-21.333 21.333-21.333h70.827c24.875 0 75.349-3.797 74.453-4.181 63.445-14.037 121.515-45.739 167.851-91.733l278.016-276.565 113.152-115.925c42.411-42.155 96.896-66.261 149.461-66.261h76.075l-134.229-134.229c-8.32-8.32-8.32-21.845 0-30.165 4.139-4.181 9.6-6.272 15.061-6.272s10.923 2.091 15.104 6.229l170.667 170.667c8.32 8.32 8.32 21.845 0 30.165l-170.667 170.709z" />
<glyph unicode="&#xe9ce;" glyph-name="arrows_up-arrow" d="M37.333 156.544l474.667 536.619 474.667-536.619c4.224-4.779 10.112-7.211 16-7.211 5.035 0 10.069 1.792 14.123 5.333 8.832 7.808 9.685 21.291 1.835 30.123l-490.667 554.667c-8.064 9.173-23.893 9.173-31.957 0l-490.667-554.667c-7.808-8.832-6.997-22.272 1.835-30.123 8.832-7.808 22.357-6.997 30.165 1.877z" />
<glyph unicode="&#xe9cf;" glyph-name="arrows_up-arrow-circle" d="M512-64c282.325 0 512 229.675 512 512s-229.675 512-512 512-512-229.675-512-512 229.675-512 512-512zM512 917.333c258.773 0 469.333-210.56 469.333-469.333s-210.56-469.333-469.333-469.333-469.333 210.56-469.333 469.333 210.56 469.333 469.333 469.333zM208.384 285.013l303.616 364.331 303.616-364.331c4.224-5.077 10.283-7.68 16.384-7.68 4.821 0 9.685 1.621 13.653 4.949 9.045 7.552 10.24 20.992 2.688 30.080l-320 384c-8.064 9.728-24.661 9.728-32.768 0l-320-384c-7.552-9.045-6.315-22.528 2.688-30.080 9.131-7.552 22.613-6.4 30.123 2.731z" />
<glyph unicode="&#xe9d0;" glyph-name="arrows_up-arrow-closed" d="M21.333 149.333h981.333c8.363 0 16 4.907 19.456 12.544 3.456 7.68 2.091 16.64-3.499 22.912l-490.667 554.667c-8.064 9.173-23.851 9.173-31.915 0l-490.667-554.667c-5.589-6.272-6.955-15.232-3.499-22.912 3.456-7.637 11.093-12.544 19.456-12.544zM512 693.163l443.307-501.163h-886.613l443.307 501.163z" />
<glyph unicode="&#xe9d6;" glyph-name="arrows_up-line-arrow-circle" d="M490.667-64c270.549 0 490.667 220.117 490.667 490.667s-220.117 490.667-490.667 490.667-490.667-220.117-490.667-490.667 220.117-490.667 490.667-490.667zM490.667 874.667c247.040 0 448-200.96 448-448s-200.96-448-448-448-448 200.96-448 448 200.96 448 448 448zM207.104 411.563l262.229 262.272v-545.835c0-11.776 9.557-21.333 21.333-21.333s21.333 9.557 21.333 21.333v545.835l262.229-262.229c4.181-4.181 9.643-6.272 15.104-6.272s10.923 2.091 15.104 6.229c8.32 8.32 8.32 21.845 0 30.165l-298.624 298.624c-1.963 1.963-4.352 3.541-6.955 4.651-5.205 2.176-11.093 2.176-16.299 0-2.645-1.067-4.992-2.645-6.955-4.651l-298.624-298.624c-8.32-8.32-8.32-21.845 0-30.165s21.76-8.32 30.123 0z" />
<glyph unicode="&#xe9d7;" glyph-name="arrows_upload-arrow" d="M490.667 106.667c11.776 0 21.333 9.557 21.333 21.333v759.168l176.896-176.896c4.181-4.181 9.643-6.272 15.104-6.272s10.923 2.091 15.104 6.229c8.32 8.32 8.32 21.845 0 30.165l-213.291 213.291c-1.963 1.963-4.352 3.541-6.955 4.651-5.205 2.176-11.093 2.176-16.299 0-2.645-1.067-4.992-2.645-6.955-4.651l-213.376-213.248c-8.32-8.32-8.32-21.845 0-30.165s21.845-8.32 30.165 0l176.939 176.896v-759.168c0-11.776 9.557-21.333 21.333-21.333zM917.333 277.333c-11.776 0-21.333-9.557-21.333-21.333v-277.333h-810.667v277.333c0 11.776-9.557 21.333-21.333 21.333s-21.333-9.557-21.333-21.333v-298.667c0-11.776 9.557-21.333 21.333-21.333h853.333c11.776 0 21.333 9.557 21.333 21.333v298.667c0 11.776-9.557 21.333-21.333 21.333z" />
<glyph unicode="&#xe9e3;" glyph-name="badges_badge-2" d="M0.725 310.997c1.536-5.803 5.461-10.667 10.795-13.44l126.592-65.408-6.613-142.336c-0.256-6.016 1.963-11.819 6.229-16.085 4.224-4.267 9.984-6.699 16.085-6.229l142.336 6.613 65.408-126.592c2.773-5.333 7.637-9.259 13.44-10.795 5.76-1.536 11.947-0.597 17.024 2.645l119.979 76.928 119.979-76.928c3.456-2.219 7.467-3.371 11.52-3.371 1.835 0 3.712 0.256 5.504 0.725 5.803 1.536 10.667 5.461 13.44 10.795l65.408 126.592 142.336-6.613c5.931-0.555 11.861 1.963 16.085 6.229 4.267 4.267 6.485 10.069 6.229 16.085l-6.613 142.336 126.592 65.408c5.333 2.773 9.259 7.637 10.795 13.44 1.579 5.803 0.597 11.989-2.645 17.024l-76.928 119.979 76.928 119.979c3.243 5.077 4.224 11.264 2.645 17.024-1.536 5.803-5.461 10.667-10.795 13.44l-126.592 65.408 6.613 142.336c0.256 6.016-1.963 11.819-6.229 16.085-4.224 4.267-10.24 6.741-16.085 6.229l-142.336-6.613-65.408 126.592c-2.773 5.333-7.637 9.259-13.44 10.795-5.76 1.536-11.947 0.597-17.024-2.645l-119.979-76.928-119.979 76.928c-5.12 3.243-11.307 4.181-17.024 2.645-5.803-1.536-10.667-5.461-13.44-10.795l-65.408-126.592-142.336 6.613c-6.059 0.427-11.861-1.963-16.085-6.229-4.267-4.267-6.485-10.069-6.229-16.085l6.613-142.336-126.549-65.408c-5.333-2.773-9.301-7.637-10.837-13.44-1.579-5.803-0.597-11.989 2.645-17.024l76.928-119.979-76.928-119.979c-3.243-5.035-4.224-11.221-2.645-17.024zM123.563 436.48c4.48 7.040 4.48 16 0 23.040l-71.637 111.744 117.931 60.971c7.424 3.84 11.904 11.605 11.52 19.968l-6.187 132.608 132.608-6.187c8.192-0.512 16.085 4.139 19.968 11.52l60.971 117.931 111.744-71.637c7.040-4.48 16-4.48 23.040 0l111.744 71.637 60.971-117.931c3.84-7.381 11.605-12.075 19.968-11.52l132.608 6.187-6.187-132.608c-0.384-8.32 4.096-16.128 11.52-19.968l117.931-60.971-71.637-111.744c-4.48-7.040-4.48-16 0-23.040l71.637-111.744-117.931-60.971c-7.424-3.84-11.904-11.605-11.52-19.968l6.187-132.608-132.608 6.187c-8.405 0.512-16.128-4.139-19.968-11.52l-60.971-117.931-111.744 71.637c-3.541 2.261-7.509 3.371-11.52 3.371s-8.021-1.109-11.52-3.371l-111.744-71.637-60.971 117.931c-3.84 7.381-11.733 11.989-19.968 11.52l-132.608-6.187 6.187 132.608c0.384 8.32-4.096 16.128-11.52 19.968l-117.931 60.971 71.637 111.744zM512 149.333c164.693 0 298.667 133.973 298.667 298.667s-133.973 298.667-298.667 298.667-298.667-133.973-298.667-298.667 133.973-298.667 298.667-298.667zM512 704c141.184 0 256-114.816 256-256s-114.816-256-256-256-256 114.816-256 256 114.816 256 256 256z" />
<glyph unicode="&#xe9fb;" glyph-name="badges_badge-8" d="M106.667 618.667c11.776 0 21.333 9.557 21.333 21.333v113.835l384 161.707 384-161.707v-113.835c0-11.776 9.557-21.333 21.333-21.333s21.333 9.557 21.333 21.333v128c0 8.576-5.12 16.341-13.056 19.669l-405.333 170.667c-5.333 2.219-11.264 2.219-16.597 0l-405.333-170.667c-7.893-3.328-13.013-11.093-13.013-19.669v-128c0-11.776 9.557-21.333 21.333-21.333zM2.133 332.075c3.541-7.381 11.008-12.075 19.2-12.075h64v-192c0-8.576 5.12-16.341 13.056-19.669l405.333-170.667c2.645-1.109 5.461-1.664 8.277-1.664s5.632 0.555 8.277 1.664l405.333 170.667c7.936 3.328 13.056 11.093 13.056 19.669v192h64c8.192 0 15.659 4.693 19.2 12.075 3.584 7.381 2.603 16.171-2.56 22.571l-74.624 93.355 74.667 93.355c5.12 6.4 6.144 15.189 2.56 22.571s-11.051 12.075-19.243 12.075h-981.333c-8.192 0-15.659-4.693-19.2-12.075-3.584-7.381-2.603-16.171 2.56-22.571l74.624-93.355-74.667-93.355c-5.12-6.4-6.101-15.147-2.517-22.571zM896 142.165l-384-161.707-384 161.707v177.835h768v-177.835zM123.349 434.645c6.229 7.808 6.229 18.859 0 26.667l-57.643 72.021h892.587l-57.643-72.021c-6.229-7.808-6.229-18.859 0-26.667l57.643-71.979h-892.587l57.643 71.979z" />
<glyph unicode="&#xe9fc;" glyph-name="badges_badge-9" d="M2.091 332.075c3.584-7.381 11.051-12.075 19.243-12.075h124.416c-16.939-25.045-18.645-55.893-4.523-82.517 14.037-26.496 41.344-42.923 71.253-42.923h4.267c0.512 0 3.883 0.128 4.437 0.171 20.608 0 37.376-16.896 37.376-37.717l0.043-2.773c-1.579-22.699 5.931-44.16 21.205-60.501 26.453-28.331 71.936-33.92 104.107-12.032 19.712 13.056 46.123 4.651 55.509-15.019 13.483-27.989 41.259-45.355 72.576-45.355s59.093 17.365 72.576 45.355c9.387 19.499 36.181 27.904 55.424 15.061 13.483-9.131 29.013-13.952 44.885-13.952 44.416 0 80.555 36.181 80.555 80.683l-0.043 5.845c-0.768 10.411 2.731 20.395 9.856 28.075 7.168 7.723 17.28 12.16 27.733 12.16l2.773 0.043 5.931-0.213c44.373 0 80.469 36.267 80.469 80.811 0 16.128-4.693 31.232-13.867 44.715 0 0.043 0 0.043-0.043 0.085h124.416c8.192 0 15.659 4.693 19.243 12.075 3.541 7.381 2.56 16.171-2.56 22.571l-74.709 93.355 74.667 93.355c5.12 6.4 6.101 15.189 2.56 22.571s-11.008 12.075-19.2 12.075h-124.416c16.939 25.045 18.645 55.893 4.523 82.517-14.037 26.496-41.344 42.923-71.253 42.923h-4.267c-0.512 0-3.883-0.128-4.437-0.171-20.608 0-37.376 16.896-37.376 37.717l-0.043 2.773c1.579 22.656-5.931 44.16-21.205 60.501-26.411 28.331-71.851 33.963-104.149 12.032-18.603-12.501-45.781-4.864-55.467 15.019-13.483 27.989-41.259 45.355-72.576 45.355s-59.093-17.365-72.576-45.355c-9.387-19.541-36.224-27.947-55.424-15.061-13.483 9.131-29.013 13.952-44.885 13.952-44.416 0-80.555-36.181-80.555-80.683l0.043-5.845c0.811-10.411-2.688-20.395-9.813-28.075-7.211-7.723-17.323-12.16-27.776-12.16l-2.773-0.085-5.931 0.213c-44.373 0-80.469-36.224-80.469-80.811 0-16.128 4.693-31.232 13.867-44.715 0-0.043 0-0.043 0.043-0.085h-124.416c-8.192 0.043-15.659-4.651-19.243-12.032-3.541-7.381-2.56-16.171 2.56-22.571l74.709-93.355-74.667-93.355c-5.163-6.4-6.144-15.147-2.603-22.571zM842.923 296.064c4.437-6.485 6.571-13.312 6.571-20.864 0-18.347-14.464-38.144-37.803-38.144v-21.333l-4.437 21.504h-4.267c-22.272 0-43.776-9.387-59.008-25.771-15.317-16.469-22.827-37.888-21.205-58.667v-4.267c0-33.024-36.139-46.805-58.965-31.317-40.192 26.795-97.536 9.941-117.675-32-12.757-26.539-55.467-26.539-68.224 0-13.355 27.819-42.027 45.824-72.96 45.824-15.701 0-31.147-4.779-44.843-13.909-15.616-10.624-36.565-7.637-49.067 5.76-5.035 5.376-10.795 14.677-9.771 29.909v4.267c0 44.331-35.925 80.384-80.043 80.384-2.005 0-4.011-0.085-4.437-0.171h-4.267c-14.293 0-26.837 7.552-33.579 20.267-6.613 12.459-5.803 26.88 2.219 38.741 4.949 7.339 8.619 15.36 10.923 23.723h639.787c2.347-8.363 6.059-16.427 11.051-23.936zM181.077 599.936c-4.437 6.485-6.571 13.312-6.571 20.864 0 18.347 14.464 38.144 37.803 38.144l8.704-0.171c22.272 0 43.776 9.387 59.008 25.771 15.317 16.469 22.827 37.888 21.205 58.709v4.267c0 33.067 36.181 46.805 58.965 31.317 40.277-26.88 97.536-9.941 117.675 32 12.8 26.496 55.467 26.581 68.267-0.128 20.608-42.453 78.123-58.368 117.803-31.787 15.573 10.667 36.565 7.595 49.067-5.76 5.035-5.376 10.795-14.677 9.771-29.909v-4.267c0-44.331 35.925-80.384 80.043-80.384 2.005 0 4.011 0.085 4.437 0.171h4.267c14.293 0 26.837-7.552 33.579-20.267 6.613-12.459 5.803-26.88-2.219-38.741-4.992-7.424-8.704-15.445-11.008-23.765h-639.787c-2.304 8.363-6.016 16.427-11.008 23.936zM123.349 434.645c6.229 7.808 6.229 18.859 0 26.667l-57.6 72.021h892.501l-57.6-72.021c-6.229-7.808-6.229-18.859 0-26.667l57.6-71.979h-892.501l57.6 71.979zM842.667 458.667c0-23.564-19.103-42.667-42.667-42.667s-42.667 19.103-42.667 42.667c0 23.564 19.103 42.667 42.667 42.667s42.667-19.103 42.667-42.667zM266.667 458.667c0-23.564-19.103-42.667-42.667-42.667s-42.667 19.103-42.667 42.667c0 23.564 19.103 42.667 42.667 42.667s42.667-19.103 42.667-42.667z" />
<glyph unicode="&#xe9fe;" glyph-name="badges_badge-shield" d="M502.144-61.568c3.072-1.621 6.443-2.432 9.856-2.432s6.784 0.811 9.856 2.432c283.435 148.096 459.477 450.091 459.477 788.139 0 72.107-8.661 145.109-25.771 217.003-1.493 6.315-5.803 11.605-11.648 14.379-5.888 2.773-12.715 2.731-18.517-0.171-113.323-55.936-260.139-86.784-413.397-86.784s-300.075 30.848-413.397 86.784c-5.845 2.901-12.672 2.987-18.517 0.171-5.888-2.731-10.155-8.021-11.648-14.336-17.109-71.893-25.771-144.896-25.771-217.045 0-338.048 176.043-640.043 459.477-788.139zM104.192 908.032c115.285-51.499 258.859-79.701 407.808-79.701s292.523 28.203 407.808 79.701c12.544-60.288 18.859-121.216 18.859-181.461 0-318.165-163.2-602.539-426.667-745.088-263.467 142.549-426.667 426.965-426.667 745.088 0 60.245 6.315 121.173 18.859 181.461z" />
<glyph unicode="&#xe9ff;" glyph-name="badges_badge-shield-2" d="M503.296-62.165c2.773-1.195 5.717-1.835 8.704-1.835s5.931 0.64 8.704 1.835c15.317 6.912 375.296 170.496 375.296 382.165v618.667c0 11.776-9.557 21.333-21.333 21.333h-725.333c-11.776 0-21.333-9.557-21.333-21.333v-618.667c0-211.669 359.979-375.253 375.296-382.165zM170.667 917.333h682.667v-597.333c0-167.637-287.189-313.173-341.333-339.115-54.144 25.899-341.333 171.307-341.333 339.115v597.333z" />
<glyph unicode="&#xea03;" glyph-name="badges_christianity" d="M576 960h-128c-11.776 0-21.333-9.557-21.333-21.333v-277.333h-234.667c-11.776 0-21.333-9.557-21.333-21.333v-128c0-11.776 9.557-21.333 21.333-21.333h234.667v-533.333c0-11.776 9.557-21.333 21.333-21.333h128c11.776 0 21.333 9.557 21.333 21.333v533.333h234.667c11.776 0 21.333 9.557 21.333 21.333v128c0 11.776-9.557 21.333-21.333 21.333h-234.667v277.333c0 11.776-9.557 21.333-21.333 21.333zM810.667 618.667v-85.333h-234.667c-11.776 0-21.333-9.557-21.333-21.333v-533.333h-85.333v533.333c0 11.776-9.557 21.333-21.333 21.333h-234.667v85.333h234.667c11.776 0 21.333 9.557 21.333 21.333v277.333h85.333v-277.333c0-11.776 9.557-21.333 21.333-21.333h234.667z" />
<glyph unicode="&#xea06;" glyph-name="badges_fire-symbol" d="M530.432 821.419c-7.68 13.099-29.227 13.099-36.864 0l-448-768c-3.84-6.571-3.883-14.763-0.043-21.376s10.837-10.709 18.475-10.709h896c0.299 0 0.555 0.043 0.853 0 11.776 0 21.333 9.557 21.333 21.333 0 5.973-2.432 11.307-6.357 15.147l-445.397 763.605zM101.163 64l410.837 704.341 410.837-704.341h-821.675z" />
<glyph unicode="&#xea0d;" glyph-name="badges_medal-sign" d="M192 576c-11.776 0-21.333-9.557-21.333-21.333s9.557-21.333 21.333-21.333h234.667c0-35.84 22.315-66.517 53.717-79.104l-68.096-133.845-180.608-25.515c-8.064-1.109-14.848-6.827-17.323-14.635-2.517-7.851-0.299-16.384 5.675-22.016l130.347-123.264-30.805-173.909c-1.408-7.979 1.792-16.043 8.277-20.864 6.485-4.779 15.104-5.589 22.4-1.835l161.749 82.475 161.707-82.517c3.072-1.536 6.4-2.304 9.728-2.304 4.48 0 8.96 1.408 12.715 4.181 6.485 4.821 9.728 12.928 8.277 20.864l-30.763 173.952 130.347 123.264c5.973 5.632 8.149 14.165 5.675 22.016-2.517 7.808-9.259 13.483-17.323 14.635l-180.608 25.515-68.096 133.845c31.36 12.544 53.675 43.221 53.675 79.061h234.667c11.776 0 21.333 9.557 21.333 21.333s-9.557 21.333-21.333 21.333h-21.333v341.333h21.333c11.776 0 21.333 9.557 21.333 21.333s-9.557 21.333-21.333 21.333h-640c-11.776 0-21.333-9.557-21.333-21.333s9.557-21.333 21.333-21.333h21.333v-341.333h-21.333zM384 576v341.333h256v-341.333h-256zM594.688 279.68l147.797-20.821-106.496-100.736c-5.205-4.907-7.595-12.16-6.315-19.2l25.301-143.104-133.248 68.011c-3.072 1.493-6.4 2.304-9.728 2.304s-6.656-0.811-9.728-2.347l-133.248-68.011 25.301 143.104c1.237 7.040-1.109 14.293-6.315 19.2l-106.496 100.736 147.797 20.821c6.869 0.939 12.885 5.248 16 11.477l66.688 131.115 66.688-131.115c3.157-6.187 9.131-10.496 16-11.435zM512 490.667c-23.552 0-42.667 19.115-42.667 42.667h85.333c0-23.552-19.115-42.667-42.667-42.667zM768 576h-85.333v341.333h85.333v-341.333zM256 917.333h85.333v-341.333h-85.333v341.333z" />
<glyph unicode="&#xea15;" glyph-name="badges_post-card" d="M1002.667 789.333h-981.333c-11.776 0-21.333-9.557-21.333-21.333v-640c0-11.776 9.557-21.333 21.333-21.333h981.333c11.776 0 21.333 9.557 21.333 21.333v640c0 11.776-9.557 21.333-21.333 21.333zM981.333 149.333h-938.667v597.333h938.667v-597.333zM661.333 405.333h213.333c11.776 0 21.333 9.557 21.333 21.333v213.333c0 11.776-9.557 21.333-21.333 21.333h-213.333c-11.776 0-21.333-9.557-21.333-21.333v-213.333c0-11.776 9.557-21.333 21.333-21.333zM682.667 618.667h170.667v-170.667h-170.667v170.667zM149.333 234.667h256c11.776 0 21.333 9.557 21.333 21.333s-9.557 21.333-21.333 21.333h-256c-11.776 0-21.333-9.557-21.333-21.333s9.557-21.333 21.333-21.333zM149.333 320h256c11.776 0 21.333 9.557 21.333 21.333s-9.557 21.333-21.333 21.333h-256c-11.776 0-21.333-9.557-21.333-21.333s9.557-21.333 21.333-21.333zM149.333 405.333h256c11.776 0 21.333 9.557 21.333 21.333s-9.557 21.333-21.333 21.333h-256c-11.776 0-21.333-9.557-21.333-21.333s9.557-21.333 21.333-21.333z" />
<glyph unicode="&#xea1d;" glyph-name="badges_ribbon-2" d="M109.824 43.307l119.765 17.963 44.117-111.787c2.987-7.595 10.069-12.8 18.219-13.44 0.512-0.043 1.067-0.043 1.621-0.043 7.552 0 14.592 4.011 18.432 10.581l193.195 331.093c2.304-0.043 4.523-0.341 6.827-0.341s4.523 0.299 6.827 0.341l193.237-331.093c3.797-6.571 10.837-10.581 18.389-10.581 0.555 0 1.067 0 1.621 0.043 8.149 0.64 15.232 5.845 18.219 13.44l44.117 111.787 119.765-17.963c8.149-1.067 16.213 2.347 20.821 9.131 4.608 6.827 4.907 15.659 0.768 22.741l-178.816 306.304c59.52 61.483 96.384 145.067 96.384 237.184 0 188.203-153.131 341.333-341.333 341.333s-341.333-153.131-341.333-341.333c0-92.117 36.864-175.701 96.384-237.184l-178.816-306.304c-4.139-7.083-3.84-15.915 0.768-22.741 4.651-6.784 12.629-10.24 20.821-9.131zM783.957 106.027c-9.813 1.408-19.371-4.011-23.040-13.269l-34.219-86.699-161.024 275.925c59.477 9.472 113.877 34.091 158.976 70.144l151.765-260.011-92.459 13.909zM512 917.333c164.693 0 298.667-133.973 298.667-298.667s-133.973-298.667-298.667-298.667-298.667 133.973-298.667 298.667 133.973 298.667 298.667 298.667zM299.349 352.128c45.099-36.053 99.499-60.715 158.976-70.144l-161.024-275.925-34.219 86.699c-3.627 9.259-13.355 14.677-23.040 13.269l-92.501-13.909 151.808 260.011zM512 405.333c117.632 0 213.333 95.701 213.333 213.333s-95.701 213.333-213.333 213.333-213.333-95.701-213.333-213.333 95.701-213.333 213.333-213.333zM512 789.333c94.123 0 170.667-76.544 170.667-170.667s-76.544-170.667-170.667-170.667-170.667 76.544-170.667 170.667 76.544 170.667 170.667 170.667z" />
<glyph unicode="&#xea1e;" glyph-name="badges_ribbon-3" d="M341.333 324.309v-366.976c0-8.32 4.864-15.915 12.416-19.371 7.595-3.499 16.469-2.219 22.784 3.2l135.467 116.053 135.467-116.096c3.925-3.371 8.875-5.12 13.867-5.12 3.029 0 6.059 0.64 8.917 1.963 7.552 3.456 12.416 11.051 12.416 19.371v367.019c105.344 60.715 170.667 171.947 170.667 294.315 0 188.203-153.131 341.333-341.333 341.333s-341.333-153.131-341.333-341.333c0-122.496 65.408-233.813 170.667-294.357zM640 3.712l-114.133 97.792c-3.968 3.456-8.917 5.163-13.867 5.163s-9.899-1.707-13.867-5.163l-114.133-97.792v298.624c1.067-0.427 2.219-0.725 3.328-1.195 3.541-1.408 7.168-2.517 10.709-3.797 7.979-2.859 16-5.547 24.192-7.765 5.077-1.408 10.24-2.603 15.403-3.755 7.040-1.579 14.123-2.859 21.291-3.925 5.419-0.853 10.795-1.749 16.299-2.347 9.728-1.024 19.541-1.536 29.355-1.749 2.475-0.085 4.907-0.469 7.424-0.469s4.949 0.384 7.467 0.427c9.771 0.213 19.541 0.725 29.269 1.749 5.547 0.597 10.965 1.493 16.427 2.347 7.040 1.109 13.995 2.347 20.949 3.883 5.291 1.195 10.581 2.432 15.787 3.883 7.851 2.133 15.573 4.693 23.211 7.424 3.883 1.408 7.808 2.603 11.648 4.139 1.067 0.427 2.176 0.683 3.2 1.152v-298.624zM512 917.333c164.693 0 298.667-133.973 298.667-298.667 0-110.976-61.013-211.968-159.573-263.765-63.445-34.731-140.629-43.435-210.901-26.069-23.509 5.845-46.293 14.592-67.584 26.24-98.261 51.627-159.275 152.619-159.275 263.595 0 164.693 133.973 298.667 298.667 298.667zM512 362.667c141.184 0 256 114.816 256 256s-114.816 256-256 256-256-114.816-256-256 114.816-256 256-256zM512 832c117.632 0 213.333-95.701 213.333-213.333s-95.701-213.333-213.333-213.333-213.333 95.701-213.333 213.333 95.701 213.333 213.333 213.333z" />
<glyph unicode="&#xea20;" glyph-name="badges_ribbon-5" d="M393.216 345.088l-20.907-128.299c-1.323-8.064 2.091-16.171 8.747-20.864 6.656-4.736 15.403-5.248 22.613-1.237l108.331 59.861 108.331-59.904c3.243-1.749 6.784-2.645 10.325-2.645 4.352 0 8.619 1.323 12.288 3.883 6.656 4.693 10.069 12.8 8.747 20.864l-20.907 128.299 88.448 90.667c5.589 5.717 7.509 14.080 4.992 21.675-2.56 7.595-9.131 13.099-17.024 14.293l-121.429 18.56-54.485 116.096c-6.997 15.019-31.573 15.019-38.571 0l-54.485-116.096-121.429-18.56c-7.936-1.195-14.507-6.741-17.024-14.293-2.517-7.595-0.597-15.957 4.992-21.675l88.448-90.624zM455.893 449.835c7.040 1.067 13.099 5.589 16.085 12.032l40.021 85.248 40.021-85.248c2.987-6.443 9.045-10.965 16.085-12.032l91.605-13.995-66.987-68.693c-4.736-4.864-6.869-11.648-5.803-18.347l15.573-95.573-80.213 44.331c-3.2 1.792-6.784 2.688-10.325 2.688s-7.125-0.896-10.325-2.688l-80.213-44.331 15.573 95.573c1.067 6.699-1.024 13.483-5.803 18.347l-66.987 68.693 91.691 13.995zM90.325 803.413c3.029-8.448 11.051-14.080 20.053-14.080h803.243c9.003 0 16.981 5.632 20.053 14.080l46.379 128c2.389 6.528 1.408 13.824-2.603 19.541s-10.496 9.045-17.451 9.045h-896c-6.955 0-13.44-3.413-17.451-9.088s-4.949-12.971-2.603-19.499l46.379-128zM929.579 917.333l-30.933-85.333h-773.291l-30.933 85.333h835.157zM192 746.667c-11.776 0-21.333-9.557-21.333-21.333v-768c0-7.509 3.925-14.421 10.368-18.304 6.4-3.883 14.464-4.053 20.992-0.555l309.973 165.333 309.973-165.333c3.115-1.621 6.571-2.475 10.027-2.475 3.797 0 7.637 1.024 10.965 3.029 6.443 3.883 10.368 10.795 10.368 18.304v768c0 11.776-9.557 21.333-21.333 21.333h-640zM810.667-7.125l-288.64 153.941c-3.115 1.664-6.571 2.517-10.027 2.517s-6.912-0.853-10.027-2.517l-288.64-153.941v711.125h597.333v-711.125z" />
<glyph unicode="&#xea27;" glyph-name="badges_water-symbol" d="M960 832h-896c-7.637 0-14.677-4.096-18.517-10.709s-3.755-14.805 0.085-21.376l448-768c3.84-6.528 10.837-10.581 18.432-10.581s14.592 4.053 18.432 10.581l448 768c3.84 6.571 3.883 14.763 0.043 21.376s-10.837 10.709-18.475 10.709zM512 84.992l-410.837 704.341h821.717l-410.88-704.341z" />
<glyph unicode="&#xea28;" glyph-name="building_appartment" d="M21.333 21.333c-11.776 0-21.333-9.557-21.333-21.333s9.557-21.333 21.333-21.333h981.333c11.776 0 21.333 9.557 21.333 21.333s-9.557 21.333-21.333 21.333h-64v640h64c11.776 0 21.333 9.557 21.333 21.333v170.667c0 11.776-9.557 21.333-21.333 21.333h-981.333c-11.776 0-21.333-9.557-21.333-21.333v-170.667c0-11.776 9.557-21.333 21.333-21.333h64v-640h-64zM42.667 832h938.667v-128h-938.667v128zM128 661.333h768v-640h-768v640zM234.667 405.333h128c11.776 0 21.333 9.557 21.333 21.333v128c0 11.776-9.557 21.333-21.333 21.333h-128c-11.776 0-21.333-9.557-21.333-21.333v-128c0-11.776 9.557-21.333 21.333-21.333zM256 533.333h85.333v-85.333h-85.333v85.333zM789.333 576h-128c-11.776 0-21.333-9.557-21.333-21.333v-128c0-11.776 9.557-21.333 21.333-21.333h128c11.776 0 21.333 9.557 21.333 21.333v128c0 11.776-9.557 21.333-21.333 21.333zM768 448h-85.333v85.333h85.333v-85.333zM448 405.333h128c11.776 0 21.333 9.557 21.333 21.333v128c0 11.776-9.557 21.333-21.333 21.333h-128c-11.776 0-21.333-9.557-21.333-21.333v-128c0-11.776 9.557-21.333 21.333-21.333zM469.333 533.333h85.333v-85.333h-85.333v85.333zM362.667 277.333h-128c-11.776 0-21.333-9.557-21.333-21.333v-128c0-11.776 9.557-21.333 21.333-21.333h128c11.776 0 21.333 9.557 21.333 21.333v128c0 11.776-9.557 21.333-21.333 21.333zM341.333 149.333h-85.333v85.333h85.333v-85.333zM789.333 277.333h-128c-11.776 0-21.333-9.557-21.333-21.333v-128c0-11.776 9.557-21.333 21.333-21.333h128c11.776 0 21.333 9.557 21.333 21.333v128c0 11.776-9.557 21.333-21.333 21.333zM768 149.333h-85.333v85.333h85.333v-85.333zM576 277.333h-128c-11.776 0-21.333-9.557-21.333-21.333v-128c0-11.776 9.557-21.333 21.333-21.333h128c11.776 0 21.333 9.557 21.333 21.333v128c0 11.776-9.557 21.333-21.333 21.333zM554.667 149.333h-85.333v85.333h85.333v-85.333zM789.333 362.667h-554.667c-11.776 0-21.333-9.557-21.333-21.333s9.557-21.333 21.333-21.333h554.667c11.776 0 21.333 9.557 21.333 21.333s-9.557 21.333-21.333 21.333z" />
<glyph unicode="&#xea29;" glyph-name="building_appartment-2" d="M874.667 960h-725.333c-11.776 0-21.333-9.557-21.333-21.333v-960h-64c-11.776 0-21.333-9.557-21.333-21.333s9.557-21.333 21.333-21.333h896c11.776 0 21.333 9.557 21.333 21.333s-9.557 21.333-21.333 21.333h-64v960c0 11.776-9.557 21.333-21.333 21.333zM170.667 917.333h682.667v-938.667h-213.333v192c0 11.776-9.557 21.333-21.333 21.333h-213.333c-11.776 0-21.333-9.557-21.333-21.333v-192h-213.333v938.667zM597.333-21.333h-170.667v170.667h170.667v-170.667zM234.667 661.333h128c11.776 0 21.333 9.557 21.333 21.333v128c0 11.776-9.557 21.333-21.333 21.333h-128c-11.776 0-21.333-9.557-21.333-21.333v-128c0-11.776 9.557-21.333 21.333-21.333zM256 789.333h85.333v-85.333h-85.333v85.333zM661.333 661.333h128c11.776 0 21.333 9.557 21.333 21.333v128c0 11.776-9.557 21.333-21.333 21.333h-128c-11.776 0-21.333-9.557-21.333-21.333v-128c0-11.776 9.557-21.333 21.333-21.333zM682.667 789.333h85.333v-85.333h-85.333v85.333zM448 661.333h128c11.776 0 21.333 9.557 21.333 21.333v128c0 11.776-9.557 21.333-21.333 21.333h-128c-11.776 0-21.333-9.557-21.333-21.333v-128c0-11.776 9.557-21.333 21.333-21.333zM469.333 789.333h85.333v-85.333h-85.333v85.333zM234.667 448h128c11.776 0 21.333 9.557 21.333 21.333v128c0 11.776-9.557 21.333-21.333 21.333h-128c-11.776 0-21.333-9.557-21.333-21.333v-128c0-11.776 9.557-21.333 21.333-21.333zM256 576h85.333v-85.333h-85.333v85.333zM661.333 448h128c11.776 0 21.333 9.557 21.333 21.333v128c0 11.776-9.557 21.333-21.333 21.333h-128c-11.776 0-21.333-9.557-21.333-21.333v-128c0-11.776 9.557-21.333 21.333-21.333zM682.667 576h85.333v-85.333h-85.333v85.333zM448 448h128c11.776 0 21.333 9.557 21.333 21.333v128c0 11.776-9.557 21.333-21.333 21.333h-128c-11.776 0-21.333-9.557-21.333-21.333v-128c0-11.776 9.557-21.333 21.333-21.333zM469.333 576h85.333v-85.333h-85.333v85.333zM384 256v128c0 11.776-9.557 21.333-21.333 21.333h-128c-11.776 0-21.333-9.557-21.333-21.333v-128c0-11.776 9.557-21.333 21.333-21.333h128c11.776 0 21.333 9.557 21.333 21.333zM341.333 277.333h-85.333v85.333h85.333v-85.333zM661.333 234.667h128c11.776 0 21.333 9.557 21.333 21.333v128c0 11.776-9.557 21.333-21.333 21.333h-128c-11.776 0-21.333-9.557-21.333-21.333v-128c0-11.776 9.557-21.333 21.333-21.333zM682.667 362.667h85.333v-85.333h-85.333v85.333zM448 234.667h128c11.776 0 21.333 9.557 21.333 21.333v128c0 11.776-9.557 21.333-21.333 21.333h-128c-11.776 0-21.333-9.557-21.333-21.333v-128c0-11.776 9.557-21.333 21.333-21.333zM469.333 362.667h85.333v-85.333h-85.333v85.333z" />
<glyph unicode="&#xea2a;" glyph-name="building_appartment-3" d="M1002.667-21.333h-21.333v576c0 11.776-9.557 21.333-21.333 21.333h-277.333v362.667c0 11.776-9.557 21.333-21.333 21.333h-597.333c-11.776 0-21.333-9.557-21.333-21.333v-960h-21.333c-11.776 0-21.333-9.557-21.333-21.333s9.557-21.333 21.333-21.333h981.333c11.776 0 21.333 9.557 21.333 21.333s-9.557 21.333-21.333 21.333zM938.667 533.333v-554.667h-256v554.667h256zM85.333 917.333h554.667v-938.667h-170.667v149.333c0 11.776-9.557 21.333-21.333 21.333h-170.667c-11.776 0-21.333-9.557-21.333-21.333v-149.333h-170.667v938.667zM426.667-21.333h-128v128h128v-128zM192 661.333h128c11.776 0 21.333 9.557 21.333 21.333v128c0 11.776-9.557 21.333-21.333 21.333h-128c-11.776 0-21.333-9.557-21.333-21.333v-128c0-11.776 9.557-21.333 21.333-21.333zM213.333 789.333h85.333v-85.333h-85.333v85.333zM405.333 661.333h128c11.776 0 21.333 9.557 21.333 21.333v128c0 11.776-9.557 21.333-21.333 21.333h-128c-11.776 0-21.333-9.557-21.333-21.333v-128c0-11.776 9.557-21.333 21.333-21.333zM426.667 789.333h85.333v-85.333h-85.333v85.333zM192 448h128c11.776 0 21.333 9.557 21.333 21.333v128c0 11.776-9.557 21.333-21.333 21.333h-128c-11.776 0-21.333-9.557-21.333-21.333v-128c0-11.776 9.557-21.333 21.333-21.333zM213.333 576h85.333v-85.333h-85.333v85.333zM405.333 448h128c11.776 0 21.333 9.557 21.333 21.333v128c0 11.776-9.557 21.333-21.333 21.333h-128c-11.776 0-21.333-9.557-21.333-21.333v-128c0-11.776 9.557-21.333 21.333-21.333zM426.667 576h85.333v-85.333h-85.333v85.333zM746.667 277.333h128c11.776 0 21.333 9.557 21.333 21.333v128c0 11.776-9.557 21.333-21.333 21.333h-128c-11.776 0-21.333-9.557-21.333-21.333v-128c0-11.776 9.557-21.333 21.333-21.333zM768 405.333h85.333v-85.333h-85.333v85.333zM746.667 64h128c11.776 0 21.333 9.557 21.333 21.333v128c0 11.776-9.557 21.333-21.333 21.333h-128c-11.776 0-21.333-9.557-21.333-21.333v-128c0-11.776 9.557-21.333 21.333-21.333zM768 192h85.333v-85.333h-85.333v85.333zM320 234.667c11.776 0 21.333 9.557 21.333 21.333v128c0 11.776-9.557 21.333-21.333 21.333h-128c-11.776 0-21.333-9.557-21.333-21.333v-128c0-11.776 9.557-21.333 21.333-21.333h128zM213.333 362.667h85.333v-85.333h-85.333v85.333zM405.333 234.667h128c11.776 0 21.333 9.557 21.333 21.333v128c0 11.776-9.557 21.333-21.333 21.333h-128c-11.776 0-21.333-9.557-21.333-21.333v-128c0-11.776 9.557-21.333 21.333-21.333zM426.667 362.667h85.333v-85.333h-85.333v85.333z" />
<glyph unicode="&#xea2d;" glyph-name="building_castle" d="M21.333-64h981.333c11.776 0 21.333 9.557 21.333 21.333v853.333c0 0.981-0.427 1.835-0.555 2.816-0.213 1.493-0.384 2.944-0.896 4.395-0.512 1.408-1.28 2.603-2.091 3.84-0.512 0.853-0.725 1.792-1.408 2.603l-106.667 128c-8.107 9.728-24.661 9.728-32.811 0l-106.667-128c-0.64-0.768-0.896-1.749-1.408-2.603-0.768-1.237-1.579-2.432-2.091-3.84-0.512-1.451-0.683-2.901-0.896-4.395-0.085-0.981-0.512-1.835-0.512-2.816v-192h-512v192c0 0.981-0.427 1.835-0.555 2.816-0.213 1.493-0.384 2.944-0.896 4.395-0.512 1.408-1.28 2.603-2.091 3.84-0.512 0.853-0.725 1.835-1.408 2.603l-106.667 128c-8.107 9.728-24.661 9.728-32.811 0l-106.667-128c-0.64-0.768-0.853-1.749-1.365-2.603-0.768-1.237-1.579-2.432-2.091-3.84-0.512-1.451-0.683-2.901-0.896-4.395-0.128-0.981-0.555-1.835-0.555-2.816v-853.333c0-11.776 9.557-21.333 21.333-21.333zM213.333-21.333h-170.667v810.667h170.667v-810.667zM640-21.333h-256v213.333c0 70.571 57.429 128 128 128s128-57.429 128-128v-213.333zM981.333-21.333h-170.667v810.667h170.667v-810.667zM896 905.344l61.099-73.344h-122.197l61.099 73.344zM768 576v-597.333h-85.333v213.333c0 94.123-76.544 170.667-170.667 170.667s-170.667-76.544-170.667-170.667v-213.333h-85.333v597.333h512zM128 905.344l61.099-73.344h-122.197l61.099 73.344zM149.333 704h-42.667c-11.776 0-21.333-9.557-21.333-21.333s9.557-21.333 21.333-21.333h42.667c11.776 0 21.333 9.557 21.333 21.333s-9.557 21.333-21.333 21.333zM149.333 576h-42.667c-11.776 0-21.333-9.557-21.333-21.333s9.557-21.333 21.333-21.333h42.667c11.776 0 21.333 9.557 21.333 21.333s-9.557 21.333-21.333 21.333zM149.333 448h-42.667c-11.776 0-21.333-9.557-21.333-21.333s9.557-21.333 21.333-21.333h42.667c11.776 0 21.333 9.557 21.333 21.333s-9.557 21.333-21.333 21.333zM149.333 320h-42.667c-11.776 0-21.333-9.557-21.333-21.333s9.557-21.333 21.333-21.333h42.667c11.776 0 21.333 9.557 21.333 21.333s-9.557 21.333-21.333 21.333zM874.667 661.333h42.667c11.776 0 21.333 9.557 21.333 21.333s-9.557 21.333-21.333 21.333h-42.667c-11.776 0-21.333-9.557-21.333-21.333s9.557-21.333 21.333-21.333zM874.667 533.333h42.667c11.776 0 21.333 9.557 21.333 21.333s-9.557 21.333-21.333 21.333h-42.667c-11.776 0-21.333-9.557-21.333-21.333s9.557-21.333 21.333-21.333zM874.667 405.333h42.667c11.776 0 21.333 9.557 21.333 21.333s-9.557 21.333-21.333 21.333h-42.667c-11.776 0-21.333-9.557-21.333-21.333s9.557-21.333 21.333-21.333zM874.667 277.333h42.667c11.776 0 21.333 9.557 21.333 21.333s-9.557 21.333-21.333 21.333h-42.667c-11.776 0-21.333-9.557-21.333-21.333s9.557-21.333 21.333-21.333z" />
<glyph unicode="&#xea2e;" glyph-name="building_castle-tower" d="M21.333 576h106.667v-618.667c0-11.776 9.557-21.333 21.333-21.333h213.333c11.776 0 21.333 9.557 21.333 21.333v277.333c0 70.571 57.429 128 128 128s128-57.429 128-128v-277.333c0-11.776 9.557-21.333 21.333-21.333h213.333c11.776 0 21.333 9.557 21.333 21.333v618.667h106.667c11.776 0 21.333 9.557 21.333 21.333v298.667c0 11.776-9.557 21.333-21.333 21.333h-128c-11.776 0-21.333-9.557-21.333-21.333v-106.667h-170.667v106.667c0 11.776-9.557 21.333-21.333 21.333h-298.667c-11.776 0-21.333-9.557-21.333-21.333v-106.667h-170.667v106.667c0 11.776-9.557 21.333-21.333 21.333h-128c-11.776 0-21.333-9.557-21.333-21.333v-298.667c0-11.776 9.557-21.333 21.333-21.333zM853.333-21.333h-170.667v256c0 94.123-76.544 170.667-170.667 170.667s-170.667-76.544-170.667-170.667v-256h-170.667v597.333h682.667v-597.333zM42.667 874.667h85.333v-106.667c0-11.776 9.557-21.333 21.333-21.333h213.333c11.776 0 21.333 9.557 21.333 21.333v106.667h256v-106.667c0-11.776 9.557-21.333 21.333-21.333h213.333c11.776 0 21.333 9.557 21.333 21.333v106.667h85.333v-256h-938.667v256z" />
<glyph unicode="&#xea2f;" glyph-name="building_church" d="M149.333-64h682.667c11.776 0 21.333 9.557 21.333 21.333v368.597l14.592-4.864c2.261-0.725 4.48-1.067 6.741-1.067 8.917 0 17.237 5.632 20.267 14.592 3.712 11.179-2.347 23.253-13.483 27.008l-157.099 52.309v209.749l5.035-2.603c3.115-1.621 6.443-2.389 9.728-2.389 7.723 0 15.147 4.224 18.944 11.563 5.419 10.496 1.28 23.339-9.216 28.715l-236.843 122.027v51.029h64c11.776 0 21.333 9.557 21.333 21.333s-9.557 21.333-21.333 21.333h-64v64c0 11.776-9.557 21.333-21.333 21.333s-21.333-9.557-21.333-21.333v-64h-64c-11.776 0-21.333-9.557-21.333-21.333s9.557-21.333 21.333-21.333h64v-51.029l-236.885-122.027c-10.496-5.376-14.635-18.219-9.216-28.715 5.419-10.539 18.304-14.677 28.715-9.173l5.035 2.603v-209.749l-157.099-52.309c-11.179-3.712-17.195-15.829-13.483-27.008 3.029-8.96 11.307-14.592 20.267-14.592 2.261 0 4.48 0.341 6.741 1.067l14.592 4.864v-368.597c0-11.776 9.557-21.333 21.333-21.333zM554.667-21.333h-128v213.333h128v-213.333zM490.667 743.979l191.019-98.389v-247.125c0-0.299 0.171-0.512 0.171-0.811 0.043-1.536 0.512-2.987 0.896-4.437 0.341-1.237 0.469-2.517 1.024-3.627 0.555-1.237 1.451-2.219 2.219-3.328 0.811-1.109 1.493-2.304 2.475-3.243 0.939-0.853 2.091-1.408 3.157-2.133 1.28-0.811 2.432-1.707 3.883-2.219 0.256-0.085 0.469-0.341 0.725-0.427l114.432-38.101v-361.472h-213.333v234.667c0 11.776-9.557 21.333-21.333 21.333h-170.667c-11.776 0-21.333-9.557-21.333-21.333v-234.667h-213.333v361.472l114.432 38.101c0.299 0.085 0.469 0.341 0.725 0.427 1.451 0.555 2.603 1.408 3.883 2.219 1.067 0.683 2.219 1.28 3.157 2.133 1.024 0.939 1.664 2.133 2.475 3.243 0.768 1.109 1.664 2.091 2.219 3.328 0.512 1.152 0.683 2.389 1.024 3.627 0.384 1.493 0.853 2.901 0.896 4.437 0 0.299 0.171 0.512 0.171 0.811v247.168l191.019 98.347zM448 448h85.333c11.776 0 21.333 9.557 21.333 21.333v85.333c0 35.285-28.715 64-64 64s-64-28.715-64-64v-85.333c0-11.776 9.557-21.333 21.333-21.333zM469.333 554.667c0 11.776 9.6 21.333 21.333 21.333s21.333-9.557 21.333-21.333v-64h-42.667v64zM213.333 256v-85.333c0-11.776 9.557-21.333 21.333-21.333h85.333c11.776 0 21.333 9.557 21.333 21.333v85.333c0 35.285-28.715 64-64 64s-64-28.715-64-64zM298.667 256v-64h-42.667v64c0 11.776 9.6 21.333 21.333 21.333s21.333-9.557 21.333-21.333zM661.333 149.333h85.333c11.776 0 21.333 9.557 21.333 21.333v85.333c0 35.285-28.715 64-64 64s-64-28.715-64-64v-85.333c0-11.776 9.557-21.333 21.333-21.333zM682.667 256c0 11.776 9.6 21.333 21.333 21.333s21.333-9.557 21.333-21.333v-64h-42.667v64z" />
<glyph unicode="&#xea30;" glyph-name="building_city-hall" d="M21.333-64h981.333c11.776 0 21.333 9.557 21.333 21.333s-9.557 21.333-21.333 21.333h-21.333v362.667c0 11.776-9.557 21.333-21.333 21.333h-106.667v64c0 11.776-9.557 21.333-21.333 21.333h-64v64c0 11.776-9.557 21.333-21.333 21.333h-21.333v128c0 110.336-84.48 200.277-192 211.157v66.176c0 11.776-9.557 21.333-21.333 21.333s-21.333-9.557-21.333-21.333v-66.176c-107.52-10.88-192-100.821-192-211.157v-128h-21.333c-11.776 0-21.333-9.557-21.333-21.333v-64h-64c-11.776 0-21.333-9.557-21.333-21.333v-64h-106.667c-11.776 0-21.333-9.557-21.333-21.333v-362.667h-21.333c-11.776 0-21.333-9.557-21.333-21.333s9.557-21.333 21.333-21.333zM341.333 661.333c0 94.123 76.544 170.667 170.667 170.667s170.667-76.544 170.667-170.667v-128h-341.333v128zM298.667 490.667h426.667v-42.667h-426.667v42.667zM85.333 320h106.667c11.776 0 21.333 9.557 21.333 21.333v64h597.333v-64c0-11.776 9.557-21.333 21.333-21.333h106.667v-341.333h-853.333v341.333zM448 362.667c-11.776 0-21.333-9.557-21.333-21.333v-298.667c0-11.776 9.557-21.333 21.333-21.333s21.333 9.557 21.333 21.333v298.667c0 11.776-9.557 21.333-21.333 21.333zM576 362.667c-11.776 0-21.333-9.557-21.333-21.333v-298.667c0-11.776 9.557-21.333 21.333-21.333s21.333 9.557 21.333 21.333v298.667c0 11.776-9.557 21.333-21.333 21.333zM704 362.667c-11.776 0-21.333-9.557-21.333-21.333v-298.667c0-11.776 9.557-21.333 21.333-21.333s21.333 9.557 21.333 21.333v298.667c0 11.776-9.557 21.333-21.333 21.333zM320 362.667c-11.776 0-21.333-9.557-21.333-21.333v-298.667c0-11.776 9.557-21.333 21.333-21.333s21.333 9.557 21.333 21.333v298.667c0 11.776-9.557 21.333-21.333 21.333zM448 704c-11.776 0-21.333-9.557-21.333-21.333v-85.333c0-11.776 9.557-21.333 21.333-21.333s21.333 9.557 21.333 21.333v85.333c0 11.776-9.557 21.333-21.333 21.333zM576 704c-11.776 0-21.333-9.557-21.333-21.333v-85.333c0-11.776 9.557-21.333 21.333-21.333s21.333 9.557 21.333 21.333v85.333c0 11.776-9.557 21.333-21.333 21.333z" />
<glyph unicode="&#xea32;" glyph-name="building_country-home" d="M21.333 362.667c2.816 0 5.717 0.555 8.491 1.792l55.509 24.107v-431.232c0-11.776 9.557-21.333 21.333-21.333h810.667c11.776 0 21.333 9.557 21.333 21.333v431.232l55.467-24.149c2.816-1.195 5.675-1.749 8.533-1.749 8.235 0 16.085 4.779 19.584 12.8 4.693 10.795-0.256 23.381-11.051 28.075l-85.333 37.12c0 0 0 0-0.043 0s0 0 0 0l-115.157 50.091v247.595l53.163-31.36c3.413-2.048 7.125-2.987 10.837-2.987 7.296 0 14.421 3.755 18.389 10.496 5.973 10.155 2.603 23.211-7.552 29.227l-85.333 50.347c0 0 0 0 0 0l-277.333 162.987c-6.656 3.925-14.976 3.925-21.632 0l-277.333-162.987c0 0 0 0 0 0v0l-85.333-50.347c-10.155-5.973-13.525-19.072-7.552-29.227 3.968-6.741 11.051-10.496 18.347-10.496 3.669 0 7.424 0.939 10.795 2.944l53.205 31.403v-247.552l-115.157-50.048c0 0 0 0 0 0s0 0-0.043 0l-85.333-37.12c-10.795-4.693-15.744-17.28-11.051-28.075 3.541-8.107 11.349-12.885 19.584-12.885zM597.333-21.333h-170.667v213.333h170.667v-213.333zM896-21.333h-256v234.667c0 11.776-9.557 21.333-21.333 21.333h-213.333c-11.776 0-21.333-9.557-21.333-21.333v-234.667h-256v428.459l114.517 49.792c0.213 0.085 0.469 0 0.683 0.128l268.8 117.035 268.8-117.035c0.256-0.128 0.555-0.043 0.811-0.171l114.389-49.749v-428.459zM256 763.477l256 150.443 256-150.443v-254.165l-247.467 107.563c-5.461 2.389-11.563 2.389-17.024 0l-247.509-107.563v254.165zM704 362.667c-11.776 0-21.333-9.557-21.333-21.333v-128c0-11.776 9.557-21.333 21.333-21.333h128c11.776 0 21.333 9.557 21.333 21.333v128c0 11.776-9.557 21.333-21.333 21.333h-128zM810.667 234.667h-85.333v85.333h85.333v-85.333zM320 362.667h-128c-11.776 0-21.333-9.557-21.333-21.333v-128c0-11.776 9.557-21.333 21.333-21.333h128c11.776 0 21.333 9.557 21.333 21.333v128c0 11.776-9.557 21.333-21.333 21.333zM298.667 234.667h-85.333v85.333h85.333v-85.333zM597.333 682.667v128c0 11.776-9.557 21.333-21.333 21.333h-128c-11.776 0-21.333-9.557-21.333-21.333v-128c0-11.776 9.557-21.333 21.333-21.333h128c11.776 0 21.333 9.557 21.333 21.333zM554.667 704h-85.333v85.333h85.333v-85.333z" />
</font>
</defs>
</svg>
